[ Сегодня идет свободное скачивание без начисления Download ]


Статистика раздачи
Нет
 
   
 
Top  
 
 
-Железный кулак / The Man with the Iron Fists (2012) HDRip-«Seven clans, a fortune in gold. Let the battle begin»- Русское название: Железный кулак
Оригинальное название: The Man with the Iron Fists
Год выпуска: 2012
Производство: США, Гонконг / Arcade Pictures, Iron Fists
Жанр: Боевик
Перевод: Дублированный [лицензия]
Субтитры: Вшитые [отключаемые]
Язык субтитров: Русские [Full, Forced], Английские [SDH]-Дата мировой премьеры: 2 ноября 2012
Дата выхода DVD релиза: 28 марта 2013, «Двадцатый Век Фокс СНГ»
Дата выхода Blu-Ray релиза: 28 марта 2013, «Двадцатый Век Фокс СНГ»-Режиссер: RZA
Продюсер: Марк Абрахам, Эрик Ньюман, Элай Рот
Актеры: Рассел Кроу, Кунг Ле, Люси Лью, Байрон Манн, RZA, Рик Юн, Дэйв Батиста, Джейми Чунг, Дэниэл Ву, Жу Жу-Описание фильма:
События развернутся в древнем феодальном Китае. Фильм расскажет историю чернокожего кузнеца, который умеет делать оружие и с легкой руки снабжает им всех, у кого есть чем заплатить. Китай того времени — жестокое место, поэтому оружие и знание навыков кунг-фу помогут жителям близлежащей деревни защитить свои дома и семьи от других кланов…- -Продолжительность: 01:35:44
Качество видео: HDRip-Видеокодек: MPEG-4 AVC/H.264
Битрейт видео: ~1734 Кбит/сек
Размер кадра: 1056x440
Аудиокодек: AC3 5.1
Битрейт аудио: 384 Кбит/сек

MediaInfo

Общее
Уникальный идентификатор : 253594865306833133761238269269093960730 (0xBEC8983015E8C730ACB05308FBA0CC1A)
Полное имя : D:\Торрент раздача\Zheleznyj_kulak_2012_HDRip_AVC_Dub.mkv
Формат : Matroska
Версия формата : Version 4 / Version 2
Размер файла : 1,41 Гбайт
Продолжительность : 1 ч. 35 м.
Общий поток : 2120 Кбит/сек
Название фильма : The Man with the Iron Fists 2012
Дата кодирования : UTC 2013-04-01 19:30:29
Программа кодирования : mkvmerge v6.1.0 ('Old Devil') built on Mar 2 2013 14:32:37
Библиотека кодирования : libebml v1.3.0 + libmatroska v1.4.0
Видео
Идентификатор : 1
Формат : AVC
Формат/Информация : Advanced Video Codec
Профиль формата : High@L4.1
Параметр CABAC формата : Да
Параметр ReFrames формата : 11 кадров
Идентификатор кодека : V_MPEG4/ISO/AVC
Продолжительность : 1 ч. 35 м.
Битрейт : 1734 Кбит/сек
Ширина : 1056 пикселей
Высота : 440 пикселей
Соотношение сторон : 2,40:1
Режим частоты кадров : Постоянный
Частота кадров : 23,976 кадра/сек
Цветовое пространство : YUV
Субдискретизация насыщенности : 4:2:0
Битовая глубина : 8 бит
Тип развёртки : Прогрессивная
Бит/(Пиксели*Кадры) : 0.156
Размер потока : 1,13 Гбайт (80%)
Библиотека кодирования : x264 core 130 r2273 b3065e6
Настройки программы : cabac=1 / ref=11 / deblock=1:-3:-3 / analyse=0x3:0x133 / me=umh / subme=10 / psy=1 / psy_rd=1.00:0.15 / mixed_ref=1 / me_range=32 / chroma_me=1 / trellis=2 / 8x8dct=1 / cqm=0 / deadzone=21,11 / fast_pskip=1 / chroma_qp_offset=-3 / threads=3 / lookahead_threads=1 / sliced_threads=0 / nr=0 / decimate=0 / interlaced=0 / bluray_compat=0 / constrained_intra=0 / bframes=9 / b_pyramid=2 / b_adapt=2 / b_bias=0 / direct=1 / weightb=1 / open_gop=0 / weightp=2 / keyint=240 / keyint_min=23 / scenecut=40 / intra_refresh=0 / rc_lookahead=40 / rc=2pass / mbtree=1 / bitrate=1734 / ratetol=1.0 / qcomp=0.60 / qpmin=10 / qpmax=51 / qpstep=4 / cplxblur=20.0 / qblur=0.5 / vbv_maxrate=50000 / vbv_bufsize=50000 / nal_hrd=none / ip_ratio=1.40 / aq=1:1.00
Язык : English
Default : Да
Forced : Нет
Аудио
Идентификатор : 2
Формат : AC-3
Формат/Информация : Audio Coding 3
Расширение режима : CM (complete main)
Параметр Endianness формата : Big
Идентификатор кодека : A_AC3
Продолжительность : 1 ч. 35 м.
Вид битрейта : Постоянный
Битрейт : 384 Кбит/сек
Каналы : 6 каналов
Расположение каналов : Front: L C R, Side: L R, LFE
Частота : 48,0 КГц
Битовая глубина : 16 бит
Метод сжатия : С потерями
Размер потока : 262 Мбайт (18%)
Заголовок : AC3 5.1 @ 384 kbps - Dub, BD CEE
Язык : Russian
Default : Да
Forced : Нет
Текст #1
Идентификатор : 3
Формат : UTF-8
Идентификатор кодека : S_TEXT/UTF8
Идентификатор кодека/Информация : UTF-8 Plain Text
Заголовок : Forced
Язык : Russian
Default : Нет
Forced : Нет
Текст #2
Идентификатор : 4
Формат : UTF-8
Идентификатор кодека : S_TEXT/UTF8
Идентификатор кодека/Информация : UTF-8 Plain Text
Заголовок : BD CEE
Язык : Russian
Default : Нет
Forced : Нет
Текст #3
Идентификатор : 5
Формат : UTF-8
Идентификатор кодека : S_TEXT/UTF8
Идентификатор кодека/Информация : UTF-8 Plain Text
Заголовок : SDH
Язык : English
Default : Нет
Forced : Нет
Меню
00:00:00.000 : en:00:00:00.000
00:06:19.420 : en:00:06:19.420
00:10:52.568 : en:00:10:52.568
00:16:46.046 : en:00:16:46.046
00:19:25.664 : en:00:19:25.664
00:24:09.406 : en:00:24:09.406
00:27:41.910 : en:00:27:41.910
00:31:51.993 : en:00:31:51.993
00:38:35.438 : en:00:38:35.438
00:41:54.303 : en:00:41:54.303
00:48:14.516 : en:00:48:14.516
00:54:44.906 : en:00:54:44.906
01:00:31.252 : en:01:00:31.252
01:05:21.375 : en:01:05:21.375
01:10:49.787 : en:01:10:49.787
01:13:59.017 : en:01:13:59.017
01:18:26.243 : en:01:18:26.243
01:21:29.843 : en:01:21:29.843
01:25:16.444 : en:01:25:16.444
01:28:56.038 : en:01:28:56.038
Скриншоты:
Время раздачи: 24/7 по возможности

[Цитировать]

Топик был перенесен из форума Новинки кинопроката в форум Боевик
Henkok



Показать сообщения:    

Текущее время: 09-Дек 18:27

Часовой пояс: UTC + 3


Вы не можете начинать темы
Вы не можете отвечать на сообщения
Вы не можете редактировать свои сообщения
Вы не можете удалять свои сообщения
Вы не можете голосовать в опросах
Вы не можете прикреплять файлы к сообщениям
Вы не можете скачивать файлы

!ВНИМАНИЕ!
Сайт не предоставляет электронные версии произведений, а занимается лишь коллекционированием и каталогизацией ссылок, присылаемых и публикуемых на форуме нашими читателями. Если вы являетесь правообладателем какого-либо представленного материала и не желаете, чтобы ссылка на него находилась в нашем каталоге, свяжитесь с нами, и мы незамедлительно удалим ее. Файлы для обмена на трекере предоставлены пользователями сайта, и администрация не несет ответственности за их содержание. Просьба не заливать файлы, защищенные авторскими правами, а также файлы нелегального содержания!