[ Сегодня идет свободное скачивание без начисления Download ]


Статистика раздачи
Нет
 
   
 
Top  
 
 
Бойня номер пять / Slaughterhouse-Five«A Man Becomes Unstuck In Time In The Film That Became A Classic.»
Год выпуска: 1972
Страна: США
Производство: Universal Pictures, Vanadas Productions
Жанр: Фантастика, Фэнтези, Драма, Комедия, Военный
Режиссер: Джордж Рой Хилл
В ролях: Майкл Сакс, Рон Лайбмен, Юджин Роч, Шарон Гэнс, Валери Перрайн, Холли Нир, Перри Кинг, Кевин Конуэй, Фридрих фон Ледебур, Эккехардт Белле
Перевод: Профессиональный (многоголосый, закадровый) + Оригинал (Английский)
Субтитры: Отсутствуют
Описание: Главный герой ленты Билли Пилигрим, слегка «отмороженный» джентльмен, совершающий путешествия во времени и пространстве. Мы увидим его приключения на войне, умильную пенсионную прострацию и появление на загадочной планете Тральфамадор, где таинственные пришельцы наблюдают за жизнью Билли из своего четвертого измерения!
[kp]25246[/kp] [imdb]tt0069280[/imdb]
Доп. информация:
Возрастное ограничение: 16+

Качество: DVDRip
Продолжительность: 01:39:08
Формат: AVI
Видео кодек: XviD
Аудио кодек: MP3
Видео: 576x320 (16:9), 25 fps, XviD ~721 kbps avg, 0.156 bit/pixel
Аудио #1: 48 kHz, MPEG Layer 3, 2 ch, ~128.00 kbps avg - Профессиональный (многоголосый, закадровый)
Аудио #2: 48 kHz, MPEG Layer 3, 2 ch, ~128.00 kbps avg - Оригинал (Английский)
Премьера (мир): 15 марта 1972

Media Info

Видео
Идентификатор                            : 0
Формат                                   : MPEG-4 Visual
Профиль формата                          : Advanced [email protected]
Параметр BVOP формата                    : 1
Параметр QPel формата                    : Нет
Параметр GMC формата                     : Без точки перехода
Параметр матрицы формата                 : Default (H.263)
Режим смешивания                         : Сжатый битовый поток
Идентификатор кодека                     : XVID
Идентификатор кодека/Подсказка           : XviD
Продолжительность                        : 1 ч. 39 м.
Битрейт                                  : 721 Кбит/сек
Ширина                                   : 576 пикселей
Высота                                   : 320 пикселей
Соотношение сторон                       : 16:9
Частота кадров                           : 25,000 кадров/сек
Цветовое пространство                    : YUV
Субдискретизация насыщенности            : 4:2:0
Битовая глубина                          : 8 бит
Тип развёртки                            : Прогрессивная
Метод сжатия                             : С потерями
Бит/(Пиксели*Кадры)                      : 0.156
Размер потока                            : 511 Мбайт (73%)
Библиотека кодирования                   : XviD 1.1.0 (UTC 2005-11-22)
Аудио #1
Идентификатор                            : 1
Формат                                   : MPEG Audio
Версия формата                           : Version 1
Профиль формата                          : Layer 3
Режим                                    : Joint stereo
Расширение режима                        : MS Stereo
Идентификатор кодека                     : 55
Идентификатор кодека/Подсказка           : MP3
Продолжительность                        : 1 ч. 39 м.
Вид битрейта                             : Постоянный
Битрейт                                  : 128 Кбит/сек
Каналы                                   : 2 канала
Частота                                  : 48,0 КГц
Метод сжатия                             : С потерями
Размер потока                            : 90,8 Мбайт (13%)
Выравнивание                             : Соединение по промежуткам
Продолжительность промежутка             : 40  мс. (1,00 видеокадр)
Время предзагрузки промежутка            : 504  мс.
Библиотека кодирования                   : LAME3.97b
Настройки программы                      : -m j -V 4 -q 2 -lowpass 17 -b 128
Аудио #2
Идентификатор                            : 2
Формат                                   : MPEG Audio
Версия формата                           : Version 1
Профиль формата                          : Layer 3
Режим                                    : Joint stereo
Расширение режима                        : MS Stereo
Идентификатор кодека                     : 55
Идентификатор кодека/Подсказка           : MP3
Продолжительность                        : 1 ч. 39 м.
Вид битрейта                             : Постоянный
Битрейт                                  : 128 Кбит/сек
Каналы                                   : 2 канала
Частота                                  : 48,0 КГц
Метод сжатия                             : С потерями
Размер потока                            : 90,8 Мбайт (13%)
Выравнивание                             : Соединение по промежуткам
Продолжительность промежутка             : 40  мс. (1,00 видеокадр)
Время предзагрузки промежутка            : 504  мс.
Библиотека кодирования                   : LAME3.97b
Настройки программы                      : -m j -V 4 -q 2 -lowpass 17 -b 128

Скриншоты



[Цитировать]

Танечка молодца, хороший релиз ))

[Цитировать]



Показать сообщения:    

Текущее время: 05-Дек 03:30

Часовой пояс: UTC + 3


Вы не можете начинать темы
Вы не можете отвечать на сообщения
Вы не можете редактировать свои сообщения
Вы не можете удалять свои сообщения
Вы не можете голосовать в опросах
Вы не можете прикреплять файлы к сообщениям
Вы не можете скачивать файлы

!ВНИМАНИЕ!
Сайт не предоставляет электронные версии произведений, а занимается лишь коллекционированием и каталогизацией ссылок, присылаемых и публикуемых на форуме нашими читателями. Если вы являетесь правообладателем какого-либо представленного материала и не желаете, чтобы ссылка на него находилась в нашем каталоге, свяжитесь с нами, и мы незамедлительно удалим ее. Файлы для обмена на трекере предоставлены пользователями сайта, и администрация не несет ответственности за их содержание. Просьба не заливать файлы, защищенные авторскими правами, а также файлы нелегального содержания!