[ Сегодня идет свободное скачивание без начисления Download ]


Статистика раздачи
Нет
 
   
 
 
 
- Аномальный вид / Modus Anomali (2012) BDRip- Русское название: Аномальный вид
Оригинальное название: Modus Anomali
Год выпуска: 2012
Жанр: Ужасы, Триллер
Описание фильма:
Герой мечется по лесу в поисках своей похищенной семьи. Следуя от одного маячка до другого, расставленных похитителем, он натыкается на лесную сторожку, где ему открываются ужасы, о которых он даже не мог подумать…
Режиссер: Джоко Анвар
Актеры: Рио Деуонто, Ханна Аль Рашид, Арид Тритама
Продолжительность: 01:26:18
Перевод: Любительский (одноголосый) [den904]
Субтитры: Отсутствуют- -Видеокодек: MPEG-4 AVC/H.264
Битрейт видео: ~5732 Kbps
Размер кадра: 1280х568
Качество видео: BDRip 720p
Аудио 1: Русский: AC3, 2ch, 192 Кбит/с
Аудио 2: Английский: DTS, 6ch, 1510 Кбит/с
Сэмпл: Скачать

MediaInfo:

Общее
Уникальный идентификатор                 : 254306101869974575352081057194509295984 (0xBF5192DB970A39D3B9F3FFA54E176170)
Полное имя                               : E:\Загрузка\Anomalynyj.vid.2012.BDRip.720p.mkv
Формат                                   : Matroska
Версия формата                           : Version 4 / Version 2
Размер файла                             : 4,48 Гбайт
Продолжительность                        : 1 ч. 26 м.
Общий поток                              : 7435 Кбит/сек
Дата кодирования                         : UTC 2013-03-24 13:04:40
Программа кодирования                    : mkvmerge v6.1.0 ('Old Devil') built on Mar  2 2013 14:32:37
Библиотека кодирования                   : libebml v1.3.0 + libmatroska v1.4.0
Видео
Идентификатор                            : 1
Формат                                   : AVC
Формат/Информация                        : Advanced Video Codec
Профиль формата                          : [url=mailto:High@L4.1]High@L4.1[/url]
Параметр CABAC формата                   : Да
Параметр ReFrames формата                : 5 кадров
Идентификатор кодека                     : V_MPEG4/ISO/AVC
Продолжительность                        : 1 ч. 26 м.
Битрейт                                  : 5732 Кбит/сек
Ширина                                   : 1280 пикселей
Высота                                   : 568 пикселей
Соотношение сторон                       : 2,25:1
Частота кадров                           : 23,976 кадра/сек
Цветовое пространство                    : YUV
Субдискретизация насыщенности            : 4:2:0
Битовая глубина                          : 8 бит
Тип развёртки                            : Прогрессивная
Бит/(Пиксели*Кадры)                      : 0.329
Размер потока                            : 3,37 Гбайт (75%)
Библиотека кодирования                   : x264 core 130 r2273 b3065e6
Настройки программы                      : cabac=1 / ref=5 / deblock=1:0:0 / analyse=0x3:0x133 / me=umh / subme=7 / psy=1 / psy_rd=1.00:0.00 / mixed_ref=1 / me_range=16 / chroma_me=1 / trellis=1 / 8x8dct=1 / cqm=0 / deadzone=21,11 / fast_pskip=0 / chroma_qp_offset=-2 / threads=18 / lookahead_threads=3 / sliced_threads=0 / nr=0 / decimate=1 / interlaced=0 / bluray_compat=0 / constrained_intra=0 / bframes=3 / b_pyramid=2 / b_adapt=1 / b_bias=0 / direct=1 / weightb=1 / open_gop=0 / weightp=2 / keyint=240 / keyint_min=23 / scenecut=40 / intra_refresh=0 / rc_lookahead=40 / rc=2pass / mbtree=1 / bitrate=5732 / ratetol=1.0 / qcomp=0.60 / qpmin=10 / qpmax=69 / qpstep=4 / cplxblur=20.0 / qblur=0.5 / ip_ratio=1.40 / aq=1:1.00
Язык                                     : English
Default                                  : Да
Forced                                   : Нет
Аудио #1
Идентификатор                            : 2
Формат                                   : AC-3
Формат/Информация                        : Audio Coding 3
Расширение режима                        : CM (complete main)
Параметр Endianness формата              : Big
Идентификатор кодека                     : A_AC3
Продолжительность                        : 1 ч. 26 м.
Вид битрейта                             : Постоянный
Битрейт                                  : 192 Кбит/сек
Каналы                                   : 2 канала
Расположение каналов                     : Front: L R
Частота                                  : 48,0 КГц
Битовая глубина                          : 16 бит
Метод сжатия                             : С потерями
Размер потока                            : 119 Мбайт (3%)
Язык                                     : Russian
Default                                  : Да
Forced                                   : Нет
Аудио #2
Идентификатор                            : 3
Формат                                   : DTS
Формат/Информация                        : Digital Theater Systems
Идентификатор кодека                     : A_DTS
Продолжительность                        : 1 ч. 26 м.
Вид битрейта                             : Постоянный
Битрейт                                  : 1510 Кбит/сек
Каналы                                   : 6 каналов
Расположение каналов                     : Front: L C R, Side: L R, LFE
Частота                                  : 48,0 КГц
Битовая глубина                          : 24 бит
Метод сжатия                             : С потерями
Размер потока                            : 932 Мбайт (20%)
Язык                                     : English
Default                                  : Нет
Forced                                   : Нет
Меню
00:00:00.000                             : en:00:00:00.000
00:05:46.971                             : en:00:05:46.971
00:13:22.551                             : en:00:13:22.551
00:23:10.472                             : en:00:23:10.472
00:29:14.586                             : en:00:29:14.586
00:35:32.255                             : en:00:35:32.255
00:43:45.122                             : en:00:43:45.122
00:48:35.037                             : en:00:48:35.037
00:54:10.247                             : en:00:54:10.247
01:00:41.471                             : en:01:00:41.471
01:07:03.519                             : en:01:07:03.519
01:15:53.131                             : en:01:15:53.131
01:24:17.469                             : en:01:24:17.469
Скриншоты:
-Время раздачи: 24/7
до 15 скачавших..

[Цитировать]



Показать сообщения:    

Текущее время: 08-Дек 17:11

Часовой пояс: UTC + 3


Вы не можете начинать темы
Вы не можете отвечать на сообщения
Вы не можете редактировать свои сообщения
Вы не можете удалять свои сообщения
Вы не можете голосовать в опросах
Вы не можете прикреплять файлы к сообщениям
Вы не можете скачивать файлы

!ВНИМАНИЕ!
Сайт не предоставляет электронные версии произведений, а занимается лишь коллекционированием и каталогизацией ссылок, присылаемых и публикуемых на форуме нашими читателями. Если вы являетесь правообладателем какого-либо представленного материала и не желаете, чтобы ссылка на него находилась в нашем каталоге, свяжитесь с нами, и мы незамедлительно удалим ее. Файлы для обмена на трекере предоставлены пользователями сайта, и администрация не несет ответственности за их содержание. Просьба не заливать файлы, защищенные авторскими правами, а также файлы нелегального содержания!