[ Сегодня идет свободное скачивание без начисления Download ]


Статистика раздачи
Нет
 
   
 
 
 
-Ангел-хранитель / Schutzengel (2012) BDRip- Русское название: Ангел-хранитель
Оригинальное название: Schutzengel
Год выпуска: 2012
Производство: Германия / Warner Bros. Film Productions Germany, barefoot films
Жанр: Триллер
Перевод: Дублированный [Line]
Субтитры: Вшитые отключаемые
Язык субтитров: Русский
Дата мировой премьеры: 24 июня 2012
Дата российской премьеры: 7 марта 2013, «20 Век Фокс СНГ», «A Company»
Дата выхода DVD релиза: 22 апреля 2013, «Новый Диск»
Дата выхода Blu-Ray релиза: 22 апреля 2013, «Новый Диск»
Режиссер: Тиль Швайгер
Актеры: Тиль Швайгер, Луна Швайгер, Каролине Шух, Мориц Бляйбтрой, Хайнер Лаутербах, Райнер Бок, Херберт Кнауп, Давид Акинлойе, Фолькер Альберс, Нуман Акар
Описание фильма:
Нина, молодая девушка — сирота, неожиданно становится свидетелем убийства, совершенного богатым предпринимателем. Теперь она — большая проблема на пути бизнесмена. Девушке негде укрыться, некуда бежать. Ее спасением становится бывший солдат Макс. Отныне он ее ангел-хранитель. Чтобы остаться в живых, им нужно срочно исчезнуть…- -
Продолжительность: 02:12:52
Качество видео: BDRip 1080p
Видеокодек: MPEG-4 AVC/H.264
Битрейт видео: ~8156 Кбит/сек
Размер кадра: 1920x816
Аудио #1: Русский (Dolby AC3, 6 ch) 448 Кбит/сек
Аудио #2: Немецкий (DTS, 6 ch) 1510 Кбит/сек

MediaInfo:

Общее
Уникальный идентификатор         : 223384923127498259689728788413103916431 (0xA80E5F0ABCC30255882BE3E8197EC58F)
Полное имя                       : H:\Angel-Hranitel.2012.D.BDRip 1080p.mkv
Формат                           : Matroska
Версия формата                   : Version 4 / Version 2
Размер файла                     : 9,58 Гбайт
Продолжительность                : 2 ч. 12 м.
Общий поток                      : 10,3 Мбит/сек
Название фильма                  : Angel-Hranitel.2012.D.BDRip 1080p
Дата кодирования                 : UTC 2013-04-02 12:55:10
Программа кодирования            : mkvmerge v6.1.0 ('Old Devil') built on Mar  2 2013 14:32:37
Библиотека кодирования           : libebml v1.3.0 + libmatroska v1.4.0
Видео
Идентификатор                    : 1
Формат                           : AVC
Формат/Информация                : Advanced Video Codec
Профиль формата                  : [url=mailto:High@L4.1]High@L4.1[/url]
Параметр CABAC формата           : Да
Параметр ReFrames формата        : 5 кадров
Идентификатор кодека             : V_MPEG4/ISO/AVC
Продолжительность                : 2 ч. 12 м.
Битрейт                          : 8155 Кбит/сек
Ширина                           : 1920 пикселей
Высота                           : 816 пикселей
Соотношение сторон               : 2,35:1
Частота кадров                   : 23,976 кадра/сек
Цветовое пространство            : YUV
Субдискретизация насыщенности    : 4:2:0
Битовая глубина                  : 8 бит
Тип развёртки                    : Прогрессивная
Бит/(Пиксели*Кадры)              : 0.217
Размер потока                    : 7,57 Гбайт (79%)
Библиотека кодирования           : x264 core 129 r2245 bc13772
Настройки программы              : cabac=1 / ref=5 / deblock=1:0:0 / analyse=0x3:0x113 / me=umh / subme=7 / psy=1 / psy_rd=1.00:0.00 / mixed_ref=1 / me_range=16 / chroma_me=1 / trellis=1 / 8x8dct=1 / cqm=0 / deadzone=21,11 / fast_pskip=0 / chroma_qp_offset=-2 / threads=6 / lookahead_threads=1 / sliced_threads=0 / nr=0 / decimate=1 / interlaced=0 / bluray_compat=0 / constrained_intra=0 / bframes=3 / b_pyramid=2 / b_adapt=1 / b_bias=0 / direct=1 / weightb=1 / open_gop=0 / weightp=2 / keyint=250 / keyint_min=23 / scenecut=40 / intra_refresh=0 / rc_lookahead=40 / rc=crf / mbtree=1 / crf=20.0 / qcomp=0.60 / qpmin=0 / qpmax=69 / qpstep=4 / ip_ratio=1.40 / aq=1:1.00
Язык                             : German
Default                          : Да
Forced                           : Нет
Аудио #1
Идентификатор                    : 2
Формат                           : AC-3
Формат/Информация                : Audio Coding 3
Расширение режима                : CM (complete main)
Идентификатор кодека             : A_AC3
Продолжительность                : 2 ч. 12 м.
Вид битрейта                     : Постоянный
Битрейт                          : 448 Кбит/сек
Каналы                           : 6 каналов
Расположение каналов             : Front: L C R, Side: L R, LFE
Частота                          : 48,0 КГц
Битовая глубина                  : 16 бит
Метод сжатия                     : С потерями
Размер потока                    : 426 Мбайт (4%)
Заголовок                        : Dub [Line]
Язык                             : Russian
Default                          : Да
Forced                           : Нет
Аудио #2
Идентификатор                    : 3
Формат                           : DTS
Формат/Информация                : Digital Theater Systems
Идентификатор кодека             : A_DTS
Продолжительность                : 2 ч. 12 м.
Вид битрейта                     : Постоянный
Битрейт                          : 1510 Кбит/сек
Каналы                           : 6 каналов
Расположение каналов             : Front: L C R, Side: L R, LFE
Частота                          : 48,0 КГц
Битовая глубина                  : 16 бит
Метод сжатия                     : С потерями
Размер потока                    : 1,40 Гбайт (15%)
Язык                             : German
Default                          : Нет
Forced                           : Нет
Текст
Идентификатор                    : 4
Формат                           : UTF-8
Идентификатор кодека             : S_TEXT/UTF8
Идентификатор кодека/Информация  : UTF-8 Plain Text
Язык                             : Russian
Default                          : Нет
Forced                           : Нет
Меню
00:00:00.000                     : en:00:00:00.000
00:09:32.572                     : en:00:09:32.572
00:17:06.984                     : en:00:17:06.984
00:26:16.784                     : en:00:26:16.784
00:34:40.203                     : en:00:34:40.203
00:45:42.615                     : en:00:45:42.615
00:52:01.493                     : en:00:52:01.493
01:00:46.768                     : en:01:00:46.768
01:10:10.081                     : en:01:10:10.081
01:19:30.808                     : en:01:19:30.808
01:26:54.543                     : en:01:26:54.543
01:37:05.236                     : en:01:37:05.236
01:48:54.153                     : en:01:48:54.153
01:55:20.122                     : en:01:55:20.122
02:04:54.740                     : en:02:04:54.740
Скриншоты:



Время раздачи: 16.30-23.00 до 5 скачавших

[Цитировать]



Показать сообщения:    

Текущее время: 10-Дек 19:29

Часовой пояс: UTC + 3


Вы не можете начинать темы
Вы не можете отвечать на сообщения
Вы не можете редактировать свои сообщения
Вы не можете удалять свои сообщения
Вы не можете голосовать в опросах
Вы не можете прикреплять файлы к сообщениям
Вы не можете скачивать файлы

!ВНИМАНИЕ!
Сайт не предоставляет электронные версии произведений, а занимается лишь коллекционированием и каталогизацией ссылок, присылаемых и публикуемых на форуме нашими читателями. Если вы являетесь правообладателем какого-либо представленного материала и не желаете, чтобы ссылка на него находилась в нашем каталоге, свяжитесь с нами, и мы незамедлительно удалим ее. Файлы для обмена на трекере предоставлены пользователями сайта, и администрация не несет ответственности за их содержание. Просьба не заливать файлы, защищенные авторскими правами, а также файлы нелегального содержания!