[ Сегодня идет свободное скачивание без начисления Download ]


Статистика раздачи
Нет
 
   
 
Top  
 
 
-Любовь – это всё, что тебе нужно / Den skaldede frisor (2012) HDRip- Русское название: Любовь – это всё, что тебе нужно
Оригинальное название: Den skaldede frisor
Год выпуска: 2012
Производство: Дания, Швеция, Италия, Франция, Германия
Жанр: Мелодрама, Комедия
Перевод: Дублированный [лицензия]
Субтитры: Отсутствуют-Дата мировой премьеры: 2 сентября 2012
Дата российской премьеры: 7 марта 2013, «Наше Кино»
Дата выхода DVD релиза: 2 апреля 2013, «Флагман-Трейд»-Режиссер: Сюзанна Бир
Продюсер: Сиссе Граум Олсен, Вибеке Винделов, Карен Бентзон
Актеры: Трине Дюрхольм, Пирс Броснан, Паприка Стеэн, Ким Бодниа, Кристиан Шамбург-Мюллер, Себастьян Йессен, Стина Экблад, Молли Бликст, Эгелинд Бодиль, Ёргенсон Мики, Скил Хансен-Описание фильма:
Филипп — одинокий вдовец и фанат своей работы. Он владеет большой фирмой по выращиванию и продаже овощей. В его жизни нет ничего, кроме бизнеса, и вот однажды сын обьявляет ему, что женится на девушке из Швеции, и просит у Филиппа разрешения устроить свадьбу на его вилле в Соренто. Филипп отправляется в Италию, где он, наконец-то, поймет, что кроме работы в жизни есть еще и любовь: с множеством поворотов и приключений!- -Продолжительность: 01:51:13
Качество видео: HDRip-Видеокодек: Xvid
Битрейт видео: ~ 1422 Кбит/сек
Размер кадра: 720x304
Аудиокодек: AC3 5.1
Битрейт аудио: 448 Кбит/сек

MediaInfo

Общее
Полное имя : D:\Торрент раздача\Lubov.eto.vse.chto.tebe.nuzhno.2012.D.HDRip.1.46Gb.avi
Формат : AVI
Формат/Информация : Audio Video Interleave
Размер файла : 1,46 Гбайт
Продолжительность : 1 ч. 51 м.
Общий поток : 1881 Кбит/сек
Программа кодирования : VirtualDubMod 1.5.10.2 (build 2542/release)
Библиотека кодирования : VirtualDubMod build 2542/release
Видео
Идентификатор : 0
Формат : MPEG-4 Visual
Профиль формата : Advanced [email protected]
Параметр BVOP формата : 2
Параметр QPel формата : Нет
Параметр GMC формата : Без точки перехода
Параметр матрицы формата : Default (MPEG)
Режим смешивания : Сжатый битовый поток
Идентификатор кодека : XVID
Идентификатор кодека/Подсказка : XviD
Продолжительность : 1 ч. 51 м.
Битрейт : 1423 Кбит/сек
Ширина : 720 пикселей
Высота : 304 пикселя
Соотношение сторон : 2,35:1
Частота кадров : 25,000 кадров/сек
Цветовое пространство : YUV
Субдискретизация насыщенности : 4:2:0
Битовая глубина : 8 бит
Тип развёртки : Прогрессивная
Метод сжатия : С потерями
Бит/(Пиксели*Кадры) : 0.260
Размер потока : 1,11 Гбайт (76%)
Библиотека кодирования : XviD 1.2.1 (UTC 2008-12-04)
Аудио
Идентификатор : 1
Формат : AC-3
Формат/Информация : Audio Coding 3
Расширение режима : CM (complete main)
Параметр Endianness формата : Big
Идентификатор кодека : 2000
Продолжительность : 1 ч. 51 м.
Вид битрейта : Постоянный
Битрейт : 448 Кбит/сек
Каналы : 6 каналов
Расположение каналов : Front: L C R, Side: L R, LFE
Частота : 48,0 КГц
Битовая глубина : 16 бит
Метод сжатия : С потерями
Задержка видео : 16 мс.
Размер потока : 356 Мбайт (24%)
Выравнивание : Разделение по промежуткам
Продолжительность промежутка : 40 мс. (1,00 видеокадр)
Время предзагрузки промежутка : 500 мс.
Скриншоты:
Время раздачи: 24/7

[Цитировать]

Топик был перенесен из форума Новинки кинопроката в форум Мелодрама
Henkok



Показать сообщения:    

Текущее время: 04-Дек 02:57

Часовой пояс: UTC + 3


Вы не можете начинать темы
Вы не можете отвечать на сообщения
Вы не можете редактировать свои сообщения
Вы не можете удалять свои сообщения
Вы не можете голосовать в опросах
Вы не можете прикреплять файлы к сообщениям
Вы не можете скачивать файлы

!ВНИМАНИЕ!
Сайт не предоставляет электронные версии произведений, а занимается лишь коллекционированием и каталогизацией ссылок, присылаемых и публикуемых на форуме нашими читателями. Если вы являетесь правообладателем какого-либо представленного материала и не желаете, чтобы ссылка на него находилась в нашем каталоге, свяжитесь с нами, и мы незамедлительно удалим ее. Файлы для обмена на трекере предоставлены пользователями сайта, и администрация не несет ответственности за их содержание. Просьба не заливать файлы, защищенные авторскими правами, а также файлы нелегального содержания!