[ Сегодня идет свободное скачивание без начисления Download ]


Статистика раздачи
Нет
 
   
 
Top  
 
 
Кроличья нора / Rabbit Hole«Love will get you through.» Страна: США
Жанр: Драма
Год выпуска: 2010
Продолжительность: 01:31:28
Перевод: Профессиональный (дублированный) R5
Перевод 2: Авторский (одноголосый закадровый) Ю.Сербин
Cубтитры: русские R5, английские
Оригинальная аудиодорожка: английский
Режиссер: Джон Кэмерон Митчелл / John Cameron Mitchell
В ролях: Николь Кидман, Аарон Экхарт, Дайэнн Уист, Майлз Теллер, Тэмми Бланчард, Сандра О, Джанкарло Эспозито, Джон Тенни, Стефен Мэйлер, Майк Дойл...
Описание: Восемь месяцев назад в семье Хауи и Бекки Корбетт произошла страшная трагедия - погиб их маленький сын. От ее последствий супруги не могут оправиться до сих пор. Каждый по-своему пытается восстановить душевный покой: Хауи играет в сквош с друзьями, Бекка проводит целые дни у плиты, оба ищут поддержки в группах психологической взаимопомощи.
Но время идет, а все усилия остаются тщетными. Брак трещит по швам, отношения с родными напряжены до предела, круг общения сокращается на глазах. Парадоксальным образом, луч надежды пробивает пелену безнадежности, когда судьба сводит Бекку с невольным виновником их несчастий - юным автором комиксов Джейсоном. Вместе героям предстоит понять, затягиваются ли раны прошлого хоть когда-нибудь...

Тип релиза: BDRip 720p
Контейнер: MKV
Видео: MPEG-4 AVC Video, 1280x720 at 23.976 fps, x264@L4.1, ~4986 kbps avg
Аудио: 48 kHz, DTS, 3/2 (L,C,R,l,r) + LFE ch, ~1536.00 kbps avg |Дубляж, R5|
Аудио 2: 48 kHz, DTS, 3/2 (L,C,R,l,r) + LFE ch, ~1536.00 kbps avg |Одноголосый закадровый, Ю.Сербин|
Аудио 3: 48 kHz, DTS, 3/2 (L,C,R,l,r) + LFE ch, ~1536.00 kbps avg
Аудио 4: 48 kHz, AAC LC, 2/0 (L,R) ch, ~125.00 kbps avg |Commentary|
Доп. информация:
  • Сохранены оригинальные чаптеры как на Blu-ray.
  • Номинация на премию «Оскар» за Лучшую женскую роль (Николь Кидман), 2011г.
  • За пьесу, по которой поставлен фильм, автор сценария Дэвид Линдси-Эбейр получил Пулитцеровскую премию.

Цитата

«Николь. Год за годом ты играешь замечательно. Ты показываешь свои грани в самой чистой форме. Многие считают, что твоя лучшая роль - это самый свежий фильм «Кроличья нора», роль Бекки»,
Джефф Бриджес, с 83-й ежегодной церемонии вручения кинопремии «Оскар» в переводе Ю.Сербина и А.Гаврилова.

MediaInfo

Общее
Уникальный идентификатор : 184570480232371445951354187657800994676 (0x8ADAFB41CF9B7F978C086CB1BAAA4F74)
Полное имя : D:\torrent\Кроличья нора BDRip 720p.mkv
Формат : Matroska
Версия формата : Version 2
Размер файла : 6,16 Гбайт
Продолжительность : 1 ч. 31 м.
Общий поток : 9643 Кбит/сек
Название фильма : Rabbit Hole (2010) - Release for HDCLUB
Дата кодирования : UTC 2013-04-02 09:31:43
Программа кодирования : mkvmerge v5.4.0 ('Piper') built on Mar 10 2012 13:34:39
Библиотека кодирования : libebml v1.2.3 + libmatroska v1.3.0
Видео
Идентификатор : 1
Формат : AVC
Формат/Информация : Advanced Video Codec
Профиль формата : High@L4.1
Параметр CABAC формата : Да
Параметр ReFrames формата : 8 кадров
Идентификатор кодека : V_MPEG4/ISO/AVC
Продолжительность : 1 ч. 31 м.
Ширина : 1280 пикселей
Высота : 720 пикселей
Соотношение сторон : 16:9
Режим частоты кадров : Постоянный
Частота кадров : 23,976 кадра/сек
Цветовое пространство : YUV
Субдискретизация насыщенности : 4:2:0
Битовая глубина : 8 бит
Тип развёртки : Прогрессивная
Заголовок : Release for HDCLUB
Библиотека кодирования : x264 core 115 r1936kMod 7a9e08d
Настройки программы : cabac=1 / ref=8 / deblock=1:-3:-3 / analyse=0x3:0x113 / me=umh / subme=10 / psy=1 / fade_compensate=0.00 / psy_rd=1.00:0.00 / mixed_ref=1 / me_range=32 / chroma_me=1 / trellis=2 / 8x8dct=1 / cqm=0 / deadzone=21,11 / fast_pskip=0 / chroma_qp_offset=-2 / threads=6 / sliced_threads=0 / nr=0 / decimate=0 / interlaced=0 / bluray_compat=0 / constrained_intra=0 / bframes=8 / b_pyramid=2 / b_adapt=2 / b_bias=0 / direct=3 / weightb=1 / open_gop=0 / weightp=2 / keyint=240 / keyint_min=24 / scenecut=40 / intra_refresh=0 / rc=crf / mbtree=0 / crf=16.5000 / qcomp=0.60 / qpmin=0 / qpmax=69 / qpstep=4 / ip_ratio=1.40 / pb_ratio=1.30 / aq=1:0.80
Язык : English
Default : Да
Forced : Нет
Аудио #1
Идентификатор : 2
Формат : DTS
Формат/Информация : Digital Theater Systems
Режим : 16
Параметр Endianness формата : Big
Идентификатор кодека : A_DTS
Продолжительность : 1 ч. 31 м.
Вид битрейта : Постоянный
Битрейт : 1510 Кбит/сек
Каналы : 6 каналов
Расположение каналов : Front: L C R, Side: L R, LFE
Частота : 48,0 КГц
Битовая глубина : 24 бит
Метод сжатия : С потерями
Размер потока : 988 Мбайт (16%)
Заголовок : DTS 5.1ch 1510 kbps - Дубляж, R5
Язык : English
Default : Да
Forced : Нет
Аудио #2
Идентификатор : 3
Формат : DTS
Формат/Информация : Digital Theater Systems
Режим : 16
Параметр Endianness формата : Big
Идентификатор кодека : A_DTS
Продолжительность : 1 ч. 31 м.
Вид битрейта : Постоянный
Битрейт : 1509 Кбит/сек
Каналы : 6 каналов
Расположение каналов : Front: L C R, Side: L R, LFE
Частота : 48,0 КГц
Битовая глубина : 24 бит
Метод сжатия : С потерями
Размер потока : 987 Мбайт (16%)
Заголовок : DTS 5.1 @ 1536 kbps - Одноголосый закадровый, Ю.Сербин
Язык : Russian
Default : Нет
Forced : Нет
Аудио #3
Идентификатор : 4
Формат : DTS
Формат/Информация : Digital Theater Systems
Режим : 16
Параметр Endianness формата : Big
Идентификатор кодека : A_DTS
Продолжительность : 1 ч. 31 м.
Вид битрейта : Постоянный
Битрейт : 1509 Кбит/сек
Каналы : 6 каналов
Расположение каналов : Front: L C R, Side: L R, LFE
Частота : 48,0 КГц
Битовая глубина : 24 бит
Метод сжатия : С потерями
Размер потока : 987 Мбайт (16%)
Заголовок : DTS 5.1ch 1510 kbps
Язык : English
Default : Нет
Forced : Нет
Аудио #4
Идентификатор : 5
Формат : AAC
Формат/Информация : Advanced Audio Codec
Профиль формата : LC
Идентификатор кодека : A_AAC
Продолжительность : 1 ч. 31 м.
Каналы : 2 канала
Расположение каналов : Front: L R
Частота : 48,0 КГц
Метод сжатия : С потерями
Заголовок : AAC LC 2.0ch ~125 kbps - Commentary
Язык : English
Default : Нет
Forced : Нет
Текст #1
Идентификатор : 6
Формат : UTF-8
Идентификатор кодека : S_TEXT/UTF8
Идентификатор кодека/Информация : UTF-8 Plain Text
Заголовок : R5
Язык : Russian
Default : Нет
Forced : Нет
Текст #2
Идентификатор : 7
Формат : UTF-8
Идентификатор кодека : S_TEXT/UTF8
Идентификатор кодека/Информация : UTF-8 Plain Text
Язык : English
Default : Нет
Forced : Нет
Меню
00:00:00.000 : en:00:00:00.000
00:04:13.837 : en:00:04:13.837
00:07:42.295 : en:00:07:42.295
00:11:24.767 : en:00:11:24.767
00:19:34.924 : en:00:19:34.924
00:24:58.288 : en:00:24:58.288
00:34:38.910 : en:00:34:38.910
00:39:10.431 : en:00:39:10.431
00:43:45.915 : en:00:43:45.915
00:49:49.153 : en:00:49:49.153
00:57:16.099 : en:00:57:16.099
01:04:46.549 : en:01:04:46.549
01:09:04.432 : en:01:09:04.432
01:14:28.172 : en:01:14:28.172
01:21:16.580 : en:01:21:16.580
01:24:59.803 : en:01:24:59.803

Скриншоты

[Цитировать]



Показать сообщения:    

Текущее время: 10-Дек 23:32

Часовой пояс: UTC + 3


Вы не можете начинать темы
Вы не можете отвечать на сообщения
Вы не можете редактировать свои сообщения
Вы не можете удалять свои сообщения
Вы не можете голосовать в опросах
Вы не можете прикреплять файлы к сообщениям
Вы не можете скачивать файлы

!ВНИМАНИЕ!
Сайт не предоставляет электронные версии произведений, а занимается лишь коллекционированием и каталогизацией ссылок, присылаемых и публикуемых на форуме нашими читателями. Если вы являетесь правообладателем какого-либо представленного материала и не желаете, чтобы ссылка на него находилась в нашем каталоге, свяжитесь с нами, и мы незамедлительно удалим ее. Файлы для обмена на трекере предоставлены пользователями сайта, и администрация не несет ответственности за их содержание. Просьба не заливать файлы, защищенные авторскими правами, а также файлы нелегального содержания!