[ Сегодня идет свободное скачивание без начисления Download ]


Статистика раздачи
Нет
 
   
 
Top  
 
 
-Большие надежды / Great Expectations (2012) Blu-Ray-«Загадочная история о поисках счастья»- Русское название: Большие надежды
Оригинальное название: Great Expectations
Год выпуска: 2012
Жанр: Драма, Мелодрама
Описание фильма:
В центре сюжета - история молодого человека по имени Пип, который рано остался без родителей и был воспитан взбалмошной сестрой. Серая жизнь Пипа круто меняется, когда он помогает на кладбище освободиться от кандалов беглому каторжнику. Именно этот поступок вскоре приводит к череде головокружительных событий в жизни молодого человека.
Режиссер: Майк Ньюэлл
Актеры: Джереми Ирвин, Холлидей Грейнджер, Рэйф Файнс, Хелена Бонем Картер, Джейсон Флеминг, Робби Колтрейн, Салли Хокинс, Юэн Бремнер, Дэвид Уоллиамс, Ралф Айнесон
Продолжительность: 02:08:22
Перевод: Дублированный

Дата мировой премьеры: 11 сентября 2012
Дата российской премьеры: 24 января 2013, «Каравелла DDC»
Дата выхода DVD релиза: 6 марта 2013, «Кармен Видео»
Дата выхода Blu-Ray: 6 марта 2013, «Кармен Видео», «ВС трейд»
Видеокодек: MPEG-4 AVC/H.264
Битрейт видео: ~25912 kbps

Размер кадра: 1920x1080
Качество видео: Blu-Ray 1080p
Аудио:
1. DTS-HD Master Audio English 3705 kbps 5.1 / 48 kHz / 3705 kbps / 24-bit (DTS Core: 5.1 / 48 kHz / 768 kbps / 24-bit)
2. DTS-HD Master Audio Russian 1920 kbps 5.1 / 48 kHz / 1920 kbps / 16-bit (DTS Core: 5.1 / 48 kHz / 1509 kbps / 16-bit) (DUB -> BD RUS)
Скриншоты:

BDInfo

Disc Title: Большие надежды. Great Expectations (2012) Blu-ray Disc
Disc Size: 37 061 160 422 bytes
Protection: AACS
BD-Java: No
BDInfo: 0.5.8
Notes:
BDINFO HOME:
Cinema Squid
http://www.cinemasquid.com/blu-ray/tools/bdinfo
INCLUDES FORUMS REPORT FOR:
AVS Forum Blu-ray Audio and Video Specifications Thread
http://www.avsforum.com/avs-vb/showthread.php?t=1155731
********************
PLAYLIST: 00000.MPLS
********************
Total   Video
Title                                                           Codec   Length  Movie Size      Disc Size       Bitrate Bitrate Main Audio Track                          Secondary Audio Track
-----                                                           ------  ------- --------------  --------------  ------- ------- ------------------                        ---------------------
00000.MPLS                                                      AVC     2:08:22 32 207 953 920  37 061 160 422  33,45   25,91   DTS-HD Master 5.1 3705Kbps (48kHz/24-bit)
DISC INFO:
Disc Title:     Большие надежды. Great Expectations (2012) Blu-ray Disc
Disc Size:      37 061 160 422 bytes
Protection:     AACS
BD-Java:        No
BDInfo:         0.5.8
PLAYLIST REPORT:
Name:                   00000.MPLS
Length:                 2:08:22.736 (h:m:s.ms)
Size:                   32 207 953 920 bytes
Total Bitrate:          33,45 Mbps
VIDEO:
Codec                   Bitrate             Description
-----                   -------             -----------
MPEG-4 AVC Video        25912 kbps          1080p / 23,976 fps / 16:9 / High Profile 4.1
AUDIO:
Codec                           Language        Bitrate         Description
-----                           --------        -------         -----------
DTS-HD Master Audio             English         3705 kbps       5.1 / 48 kHz / 3705 kbps / 24-bit (DTS Core: 5.1 / 48 kHz / 768 kbps / 24-bit)
DTS-HD Master Audio             Russian         1920 kbps       5.1 / 48 kHz / 1920 kbps / 16-bit (DTS Core: 5.1 / 48 kHz / 1509 kbps / 16-bit)
SUBTITLES:
Codec                           Language        Bitrate         Description
-----                           --------        -------         -----------
Presentation Graphics           English         37,260 kbps
Presentation Graphics           Russian         35,975 kbps
FILES:
Name            Time In         Length          Size            Total Bitrate
----            -------         ------          ----            -------------
00000.M2TS      0:00:00.000     2:08:22.736     32 207 953 920  33 451
CHAPTERS:
Number          Time In         Length          Avg Video Rate  Max 1-Sec Rate  Max 1-Sec Time  Max 5-Sec Rate  Max 5-Sec Time  Max 10Sec Rate  Max 10Sec Time  Avg Frame Size  Max Frame Size  Max Frame Time
------          -------         ------          --------------  --------------  --------------  --------------  --------------  --------------  --------------  --------------  --------------  --------------
1               0:00:00.000     0:11:05.998     26 807 kbps     53 533 kbps     00:04:10.750    39 357 kbps     00:07:17.145    35 733 kbps     00:01:16.951    139 753 bytes   533 925 bytes   00:04:10.792
2               0:11:05.998     0:11:15.299     26 359 kbps     52 320 kbps     00:20:34.524    39 850 kbps     00:17:22.541    37 084 kbps     00:17:17.786    137 422 bytes   638 083 bytes   00:16:09.635
3               0:22:21.298     0:09:43.833     26 276 kbps     45 762 kbps     00:24:33.680    38 140 kbps     00:30:54.727    37 440 kbps     00:30:51.516    136 990 bytes   583 191 bytes   00:30:00.256
4               0:32:05.131     0:09:29.735     25 297 kbps     40 275 kbps     00:35:10.191    37 139 kbps     00:35:09.065    34 652 kbps     00:35:08.773    131 887 bytes   619 458 bytes   00:36:41.198
5               0:41:34.867     0:12:47.641     30 576 kbps     41 993 kbps     00:43:15.551    38 935 kbps     00:43:14.550    37 142 kbps     00:43:14.550    159 408 bytes   592 045 bytes   00:42:49.900
6               0:54:22.509     0:09:38.119     26 187 kbps     46 591 kbps     01:02:35.042    40 374 kbps     01:02:34.792    36 888 kbps     00:58:15.992    136 527 bytes   727 744 bytes   00:56:17.665
7               1:04:00.628     0:09:26.566     30 210 kbps     43 566 kbps     01:12:58.540    36 183 kbps     01:12:55.204    34 221 kbps     01:12:06.780    157 503 bytes   513 364 bytes   01:12:08.574
8               1:13:27.194     0:12:32.126     26 484 kbps     43 060 kbps     01:22:45.752    38 710 kbps     01:22:43.875    36 193 kbps     01:23:43.935    138 074 bytes   558 732 bytes   01:25:36.506
9               1:25:59.320     0:10:42.266     24 885 kbps     51 399 kbps     01:34:10.102    39 490 kbps     01:34:09.852    35 357 kbps     01:31:06.919    129 740 bytes   443 399 bytes   01:29:53.137
10              1:36:41.587     0:11:42.326     26 075 kbps     51 947 kbps     01:40:31.275    39 717 kbps     01:46:35.555    37 476 kbps     01:46:35.555    135 942 bytes   540 478 bytes   01:46:38.934
11              1:48:23.914     0:11:02.370     26 235 kbps     47 215 kbps     01:50:47.307    40 177 kbps     01:52:52.724    37 072 kbps     01:58:48.788    136 777 bytes   604 100 bytes   01:50:48.183
12              1:59:26.284     0:08:56.452     12 801 kbps     35 456 kbps     01:59:28.035    33 065 kbps     02:00:34.894    32 682 kbps     02:00:29.889    66 742 bytes    359 039 bytes   02:07:43.614
STREAM DIAGNOSTICS:
File            PID             Type            Codec           Language                Seconds                 Bitrate                 Bytes           Packets
----            ---             ----            -----           --------                --------------          --------------          -------------   -----
00000.M2TS      4113 (0x1011)   0x1B            AVC                                     7702,653                25 912                  24 949 098 554  135 700 809
00000.M2TS      4352 (0x1100)   0x86            DTS-HD MA       eng (English)           7702,653                3 705                   3 567 379 208   20 134 654
00000.M2TS      4353 (0x1101)   0x86            DTS-HD MA       rus (Russian)           7702,653                1 920                   1 848 233 844   11 249 258
00000.M2TS      4608 (0x1200)   0x90            PGS             eng (English)           7702,653                37                      35 875 973      207 610
00000.M2TS      4609 (0x1201)   0x90            PGS             rus (Russian)           7702,653                36                      34 637 986      199 368
QUICK SUMMARY:
Disc Title: Большие надежды. Great Expectations (2012) Blu-ray Disc
Disc Size: 37 061 160 422 bytes
Protection: AACS
BD-Java: No
Playlist: 00000.MPLS
Size: 32 207 953 920 bytes
Length: 2:08:22.736
Total Bitrate: 33,45 Mbps
Video: MPEG-4 AVC Video / 25912 kbps / 1080p / 23,976 fps / 16:9 / High Profile 4.1
Audio: English / DTS-HD Master Audio / 5.1 / 48 kHz / 3705 kbps / 24-bit (DTS Core: 5.1 / 48 kHz / 768 kbps / 24-bit)
Audio: Russian / DTS-HD Master Audio / 5.1 / 48 kHz / 1920 kbps / 16-bit (DTS Core: 5.1 / 48 kHz / 1509 kbps / 16-bit)
Subtitle: English / 37,260 kbps
Subtitle: Russian / 35,975 kbps
********************
PLAYLIST: 00001.MPLS
********************
Total   Video
Title                                                           Codec   Length  Movie Size      Disc Size       Bitrate Bitrate Main Audio Track                          Secondary Audio Track
-----                                                           ------  ------- --------------  --------------  ------- ------- ------------------                        ---------------------
00001.MPLS                                                      AVC     0:11:24 2 359 664 640   37 061 160 422  27,58   25,99   DD AC3 2.0 320Kbps
DISC INFO:
Disc Title:     Большие надежды. Great Expectations (2012) Blu-ray Disc
Disc Size:      37 061 160 422 bytes
Protection:     AACS
BD-Java:        No
BDInfo:         0.5.8
PLAYLIST REPORT:
Name:                   00001.MPLS
Length:                 0:11:24.433 (h:m:s.ms)
Size:                   2 359 664 640 bytes
Total Bitrate:          27,58 Mbps
VIDEO:
Codec                   Bitrate             Description
-----                   -------             -----------
MPEG-4 AVC Video        25994 kbps          1080p / 23,976 fps / 16:9 / High Profile 4.1
AUDIO:
Codec                           Language        Bitrate         Description
-----                           --------        -------         -----------
Dolby Digital Audio             English         320 kbps        2.0 / 48 kHz / 320 kbps
FILES:
Name            Time In         Length          Size            Total Bitrate
----            -------         ------          ----            -------------
00001.M2TS      0:00:00.000     0:11:24.433     2 359 664 640   27 581
CHAPTERS:
Number          Time In         Length          Avg Video Rate  Max 1-Sec Rate  Max 1-Sec Time  Max 5-Sec Rate  Max 5-Sec Time  Max 10Sec Rate  Max 10Sec Time  Avg Frame Size  Max Frame Size  Max Frame Time
------          -------         ------          --------------  --------------  --------------  --------------  --------------  --------------  --------------  --------------  --------------  --------------
1               0:00:00.000     0:01:32.383     29 411 kbps     44 650 kbps     00:01:14.824    36 697 kbps     00:00:06.506    35 064 kbps     00:00:07.215    153 269 bytes   501 654 bytes   00:00:02.085
2               0:01:32.383     0:02:13.299     28 291 kbps     35 145 kbps     00:01:33.343    33 107 kbps     00:01:33.343    32 137 kbps     00:01:33.343    147 498 bytes   480 128 bytes   00:03:43.222
3               0:03:45.683     0:00:39.289     31 100 kbps     38 738 kbps     00:04:13.044    37 409 kbps     00:04:11.167    36 259 kbps     00:04:09.499    162 143 bytes   370 653 bytes   00:04:13.503
4               0:04:24.973     0:00:33.950     28 828 kbps     41 027 kbps     00:04:31.980    35 905 kbps     00:04:31.896    34 449 kbps     00:04:27.892    150 296 bytes   433 818 bytes   00:04:26.015
5               0:04:58.923     0:01:11.905     23 355 kbps     32 802 kbps     00:05:34.751    30 307 kbps     00:05:33.124    28 359 kbps     00:05:31.789    121 762 bytes   334 549 bytes   00:05:22.280
6               0:06:10.828     0:00:37.996     22 630 kbps     31 272 kbps     00:06:36.312    27 872 kbps     00:06:15.124    27 262 kbps     00:06:15.124    117 981 bytes   331 362 bytes   00:06:36.604
7               0:06:48.825     0:01:11.154     26 504 kbps     41 660 kbps     00:07:47.175    36 780 kbps     00:07:43.171    33 642 kbps     00:07:44.172    138 178 bytes   409 704 bytes   00:07:47.717
8               0:07:59.979     0:00:58.892     16 420 kbps     28 956 kbps     00:08:31.844    28 609 kbps     00:08:28.424    26 644 kbps     00:08:25.379    85 608 bytes    335 251 bytes   00:08:32.470
9               0:08:58.871     0:02:25.562     25 488 kbps     32 626 kbps     00:10:38.429    31 208 kbps     00:10:37.553    30 376 kbps     00:10:34.634    132 923 bytes   380 613 bytes   00:10:42.558
STREAM DIAGNOSTICS:
File            PID             Type            Codec           Language                Seconds                 Bitrate                 Bytes           Packets
----            ---             ----            -----           --------                --------------          --------------          -------------   -----
00001.M2TS      4113 (0x1011)   0x1B            AVC                                     684,267                 26 000                  2 223 903 006   12 095 853
00001.M2TS      4352 (0x1100)   0x81            AC3             eng (English)           684,267                 320                     27 376 640      171 104
QUICK SUMMARY:
Disc Title: Большие надежды. Great Expectations (2012) Blu-ray Disc
Disc Size: 37 061 160 422 bytes
Protection: AACS
BD-Java: No
Playlist: 00001.MPLS
Size: 2 359 664 640 bytes
Length: 0:11:24.433
Total Bitrate: 27,58 Mbps
Video: MPEG-4 AVC Video / 25994 kbps / 1080p / 23,976 fps / 16:9 / High Profile 4.1
Audio: English / Dolby Digital Audio / 2.0 / 48 kHz / 320 kbps
********************
PLAYLIST: 00003.MPLS
********************
Total   Video
Title                                                           Codec   Length  Movie Size      Disc Size       Bitrate Bitrate Main Audio Track                          Secondary Audio Track
-----                                                           ------  ------- --------------  --------------  ------- ------- ------------------                        ---------------------
00003.MPLS                                                      AVC     0:05:33 1 144 737 792   37 061 160 422  27,43   25,99   DD AC3 2.0 224Kbps
DISC INFO:
Disc Title:     Большие надежды. Great Expectations (2012) Blu-ray Disc
Disc Size:      37 061 160 422 bytes
Protection:     AACS
BD-Java:        No
BDInfo:         0.5.8
PLAYLIST REPORT:
Name:                   00003.MPLS
Length:                 0:05:33.875 (h:m:s.ms)
Size:                   1 144 737 792 bytes
Total Bitrate:          27,43 Mbps
VIDEO:
Codec                   Bitrate             Description
-----                   -------             -----------
MPEG-4 AVC Video        25986 kbps          1080p / 23,976 fps / 16:9 / High Profile 4.1
AUDIO:
Codec                           Language        Bitrate         Description
-----                           --------        -------         -----------
Dolby Digital Audio             English         224 kbps        2.0 / 48 kHz / 224 kbps
FILES:
Name            Time In         Length          Size            Total Bitrate
----            -------         ------          ----            -------------
00003.M2TS      0:00:00.000     0:05:33.875     1 144 737 792   27 429
CHAPTERS:
Number          Time In         Length          Avg Video Rate  Max 1-Sec Rate  Max 1-Sec Time  Max 5-Sec Rate  Max 5-Sec Time  Max 10Sec Rate  Max 10Sec Time  Avg Frame Size  Max Frame Size  Max Frame Time
------          -------         ------          --------------  --------------  --------------  --------------  --------------  --------------  --------------  --------------  --------------  --------------
1               0:00:00.000     0:05:33.875     25 986 kbps     44 041 kbps     00:00:21.855    38 421 kbps     00:01:53.613    37 073 kbps     00:01:53.613    135 480 bytes   602 925 bytes   00:00:28.028
STREAM DIAGNOSTICS:
File            PID             Type            Codec           Language                Seconds                 Bitrate                 Bytes           Packets
----            ---             ----            -----           --------                --------------          --------------          -------------   -----
00003.M2TS      4113 (0x1011)   0x1B            AVC                                     333,708                 25 999                  1 084 515 357   5 898 726
00003.M2TS      4352 (0x1100)   0x81            AC3             eng (English)           333,708                 224                     9 356 928       52 215
QUICK SUMMARY:
Disc Title: Большие надежды. Great Expectations (2012) Blu-ray Disc
Disc Size: 37 061 160 422 bytes
Protection: AACS
BD-Java: No
Playlist: 00003.MPLS
Size: 1 144 737 792 bytes
Length: 0:05:33.875
Total Bitrate: 27,43 Mbps
Video: MPEG-4 AVC Video / 25986 kbps / 1080p / 23,976 fps / 16:9 / High Profile 4.1
Audio: English / Dolby Digital Audio / 2.0 / 48 kHz / 224 kbps
********************
PLAYLIST: 00004.MPLS
********************
Total   Video
Title                                                           Codec   Length  Movie Size      Disc Size       Bitrate Bitrate Main Audio Track                          Secondary Audio Track
-----                                                           ------  ------- --------------  --------------  ------- ------- ------------------                        ---------------------
00004.MPLS                                                      AVC     0:05:17 1 092 790 272   37 061 160 422  27,58   25,99   DD AC3 2.0 320Kbps
DISC INFO:
Disc Title:     Большие надежды. Great Expectations (2012) Blu-ray Disc
Disc Size:      37 061 160 422 bytes
Protection:     AACS
BD-Java:        No
BDInfo:         0.5.8
PLAYLIST REPORT:
Name:                   00004.MPLS
Length:                 0:05:17.025 (h:m:s.ms)
Size:                   1 092 790 272 bytes
Total Bitrate:          27,58 Mbps
VIDEO:
Codec                   Bitrate             Description
-----                   -------             -----------
MPEG-4 AVC Video        25989 kbps          1080p / 23,976 fps / 16:9 / High Profile 4.1
AUDIO:
Codec                           Language        Bitrate         Description
-----                           --------        -------         -----------
Dolby Digital Audio             English         320 kbps        2.0 / 48 kHz / 320 kbps
FILES:
Name            Time In         Length          Size            Total Bitrate
----            -------         ------          ----            -------------
00004.M2TS      0:00:00.000     0:05:17.025     1 092 790 272   27 576
CHAPTERS:
Number          Time In         Length          Avg Video Rate  Max 1-Sec Rate  Max 1-Sec Time  Max 5-Sec Rate  Max 5-Sec Time  Max 10Sec Rate  Max 10Sec Time  Avg Frame Size  Max Frame Size  Max Frame Time
------          -------         ------          --------------  --------------  --------------  --------------  --------------  --------------  --------------  --------------  --------------  --------------
1               0:00:00.000     0:05:17.025     25 989 kbps     44 783 kbps     00:00:17.308    38 991 kbps     00:01:56.574    34 420 kbps     00:04:01.866    135 495 bytes   660 598 bytes   00:02:46.958
STREAM DIAGNOSTICS:
File            PID             Type            Codec           Language                Seconds                 Bitrate                 Bytes           Packets
----            ---             ----            -----           --------                --------------          --------------          -------------   -----
00004.M2TS      4113 (0x1011)   0x1B            AVC                                     316,942                 25 996                  1 029 897 816   5 601 708
00004.M2TS      4352 (0x1100)   0x81            AC3             eng (English)           316,942                 320                     12 680 960      79 256
QUICK SUMMARY:
Disc Title: Большие надежды. Great Expectations (2012) Blu-ray Disc
Disc Size: 37 061 160 422 bytes
Protection: AACS
BD-Java: No
Playlist: 00004.MPLS
Size: 1 092 790 272 bytes
Length: 0:05:17.025
Total Bitrate: 27,58 Mbps
Video: MPEG-4 AVC Video / 25989 kbps / 1080p / 23,976 fps / 16:9 / High Profile 4.1
Audio: English / Dolby Digital Audio / 2.0 / 48 kHz / 320 kbps
********************
PLAYLIST: 00002.MPLS
********************
Total   Video
Title                                                           Codec   Length  Movie Size      Disc Size       Bitrate Bitrate Main Audio Track                          Secondary Audio Track
-----                                                           ------  ------- --------------  --------------  ------- ------- ------------------                        ---------------------
00002.MPLS                                                      AVC     0:00:57 107 151 360     37 061 160 422  14,94   14,24
DISC INFO:
Disc Title:     Большие надежды. Great Expectations (2012) Blu-ray Disc
Disc Size:      37 061 160 422 bytes
Protection:     AACS
BD-Java:        No
BDInfo:         0.5.8
PLAYLIST REPORT:
Name:                   00002.MPLS
Length:                 0:00:57.390 (h:m:s.ms)
Size:                   107 151 360 bytes
Total Bitrate:          14,94 Mbps
VIDEO:
Codec                   Bitrate             Description
-----                   -------             -----------
MPEG-4 AVC Video        14244 kbps          1080p / 23,976 fps / 16:9 / High Profile 4.1
FILES:
Name            Time In         Length          Size            Total Bitrate
----            -------         ------          ----            -------------
00002.M2TS      0:00:00.000     0:00:57.390     107 151 360     14 936
CHAPTERS:
Number          Time In         Length          Avg Video Rate  Max 1-Sec Rate  Max 1-Sec Time  Max 5-Sec Rate  Max 5-Sec Time  Max 10Sec Rate  Max 10Sec Time  Avg Frame Size  Max Frame Size  Max Frame Time
------          -------         ------          --------------  --------------  --------------  --------------  --------------  --------------  --------------  --------------  --------------  --------------
1               0:00:00.000     0:00:57.390     14 244 kbps     36 628 kbps     00:00:49.799    22 224 kbps     00:00:49.340    16 780 kbps     00:00:47.338    74 260 bytes    938 251 bytes   00:00:51.051
STREAM DIAGNOSTICS:
File            PID             Type            Codec           Language                Seconds                 Bitrate                 Bytes           Packets
----            ---             ----            -----           --------                --------------          --------------          -------------   -----
00002.M2TS      4113 (0x1011)   0x1B            AVC                                     57,307                  14 264                  102 181 725     556 144
QUICK SUMMARY:
Disc Title: Большие надежды. Great Expectations (2012) Blu-ray Disc
Disc Size: 37 061 160 422 bytes
Protection: AACS
BD-Java: No
Playlist: 00002.MPLS
Size: 107 151 360 bytes
Length: 0:00:57.390
Total Bitrate: 14,94 Mbps
Video: MPEG-4 AVC Video / 14244 kbps / 1080p / 23,976 fps / 16:9 / High Profile 4.1

На диске

• Представляя "Большие Надежды";
• Персонажи "Больших Надежд";
• Удаленные и расширенные сцены;
• Фотогалерея.

Знаете ли вы, что...

- Первоначально на роль Эстеллы претендовала Руни Мара, но в итоге она отказалась.
- Алекс Петтифер отказался от роли Пипа.
- Мерил Стрип могла сыграть мисс Хэвишем, но отказалась из-за несогласованности расписаний.
- Хелена Бонем Картер рассказала в интервью, что на съемках она носила только один ботинок. Именно так был описан ее персонаж, мисс Хэвишем, в книге Чарльза Диккенса.

Награды и номинации

Британская академия, 2013 год
Номинации (1):
Лучшие костюмы
Время раздачи: 24 x 7 до 10сидов

[Цитировать]

Топик был перенесен из форума Новинки кинопроката (HD Video) в форум Зарубежное кино (HD Video)
Bootch



Показать сообщения:    

Текущее время: 08-Дек 05:13

Часовой пояс: UTC + 3


Вы не можете начинать темы
Вы не можете отвечать на сообщения
Вы не можете редактировать свои сообщения
Вы не можете удалять свои сообщения
Вы не можете голосовать в опросах
Вы не можете прикреплять файлы к сообщениям
Вы не можете скачивать файлы

!ВНИМАНИЕ!
Сайт не предоставляет электронные версии произведений, а занимается лишь коллекционированием и каталогизацией ссылок, присылаемых и публикуемых на форуме нашими читателями. Если вы являетесь правообладателем какого-либо представленного материала и не желаете, чтобы ссылка на него находилась в нашем каталоге, свяжитесь с нами, и мы незамедлительно удалим ее. Файлы для обмена на трекере предоставлены пользователями сайта, и администрация не несет ответственности за их содержание. Просьба не заливать файлы, защищенные авторскими правами, а также файлы нелегального содержания!