[ Сегодня идет свободное скачивание без начисления Download ]


Статистика раздачи
Нет
 
   
 
Top  
 
 
-Последний магнат / Da Shang Hai (2012) BDRip- Русское название: Последний магнат
Оригинальное название: Da Shang Hai
Год выпуска: 2012
Производство: Гонконг, Китай
Жанр: Драма, Приключения, Военный
Перевод: Двуголосый закадровый, любительский
Субтитры: Отсутствуют
Режиссер: Цзин Вон
Продюсер: Вэй Кеунг Лау, Манфред Вонг, Юй Дун
Актеры: Саммо Хунг, Чоу Юнь-Фат, Фрэнсис НГ, Ясуаки Курата, Хуанг Сяомин
Описание фильма:
Когда Чен Даци был еще «зеленым» пареньком, он вляпался в неприятную историю, которая привела его в камеру смертников. Но его соседом оказался влиятельный военный, которого спасли его люди – и заодно прихватили с собой и Даци. Парню пришлось сбежать в Шанхай, где он стал работать на криминального босса и со временем дослужился до должности его партнера. Однако время идет, надвигается Вторая Мировая, в Китай все активнее проникают японские войска, и Чену приходится выбирать, на чьей он стороне.
Реальная история лидера бандитской группировки, который построил свою империю, существовавшую в 1920-е и 30-е года в Шанхае.- -
Дата мировой премьеры: 21 декабря 2012
Продолжительность: 01:58:47
Качество видео: BDRip 720p
Видеокодек: MPEG-4 AVC/H.264
Битрейт видео: ~ 4 852 Kbps
Размер кадра: 1280X532
Аудиокодек: DTS
Битрейт аудио: 1510 Kbps, 6 channels [Двуголосый закадровый]

MediaInfo:

General
Unique ID : 193113015593241069339690023456249055777 (0x914836C4A74B8865A35F3EE6D7F58A21)
Complete name : D:\Video\Movies\The last tycoon_BDRip_720p.mkv
Format : Matroska
Format version : Version 1
File size : 5.28 GiB
Duration : 1h 58mn
Overall bit rate : 6 363 Kbps
Movie name : -=Muxed by Goliaf=-The Last Tycoon-=REGIS1975=-
Encoded date : UTC 2013-03-16 18:51:58
Writing application : mkvmerge v2.4.1 ('Use Me') built on Dec 5 2008 18:30:05
Writing library : libebml v0.7.7 + libmatroska v0.8.1
Video
ID : 1
Format : AVC
Format/Info : Advanced Video Codec
Format profile : [email protected]
Format settings, CABAC : Yes
Format settings, ReFrames : 12 frames
Codec ID : V_MPEG4/ISO/AVC
Duration : 1h 58mn
Bit rate : 4 852 Kbps
Width : 1 280 pixels
Height : 532 pixels
Display aspect ratio : 2.40:1
Frame rate mode : Constant
Frame rate : 24.000 fps
Color space : YUV
Chroma subsampling : 4:2:0
Bit depth : 8 bits
Scan type : Progressive
Bits/(Pixel*Frame) : 0.297
Stream size : 3.92 GiB (74%)
Title : -=Muxed by Goliaf=-The Last Tycoon-=REGIS1975=-
Writing library : x264 core 130 r2273 b3065e6
Encoding settings : cabac=1 / ref=12 / deblock=1:-3:-3 / analyse=0x3:0x113 / me=umh / subme=10 / psy=1 / psy_rd=1.00:0.05 / mixed_ref=1 / me_range=32 / chroma_me=1 / trellis=2 / 8x8dct=1 / cqm=0 / deadzone=21,11 / fast_pskip=0 / chroma_qp_offset=-2 / threads=8 / lookahead_threads=1 / sliced_threads=0 / nr=0 / decimate=1 / interlaced=0 / bluray_compat=0 / constrained_intra=0 / bframes=5 / b_pyramid=2 / b_adapt=2 / b_bias=0 / direct=3 / weightb=1 / open_gop=0 / weightp=2 / keyint=250 / keyint_min=24 / scenecut=40 / intra_refresh=0 / rc=2pass / mbtree=0 / bitrate=4852 / ratetol=1.0 / qcomp=0.70 / qpmin=0 / qpmax=69 / qpstep=4 / cplxblur=20.0 / qblur=0.5 / ip_ratio=1.40 / pb_ratio=1.30 / aq=2:0.90
Language : Chinese
Default : Yes
Forced : No
Audio
ID : 2
Format : DTS
Format/Info : Digital Theater Systems
Mode : 16
Format settings, Endianness : Big
Codec ID : A_DTS
Duration : 1h 58mn
Bit rate mode : Constant
Bit rate : 1 510 Kbps
Channel(s) : 6 channels
Channel positions : Front: L C R, Side: L R, LFE
Sampling rate : 48.0 KHz
Bit depth : 24 bits
Compression mode : Lossy
Stream size : 1.25 GiB (24%)
Default : Yes
Forced : No
Скриншоты:

Время раздачи: 24/7 - круглосуточно

[Цитировать]



Показать сообщения:    

Текущее время: 06-Дек 05:58

Часовой пояс: UTC + 3


Вы не можете начинать темы
Вы не можете отвечать на сообщения
Вы не можете редактировать свои сообщения
Вы не можете удалять свои сообщения
Вы не можете голосовать в опросах
Вы не можете прикреплять файлы к сообщениям
Вы не можете скачивать файлы

!ВНИМАНИЕ!
Сайт не предоставляет электронные версии произведений, а занимается лишь коллекционированием и каталогизацией ссылок, присылаемых и публикуемых на форуме нашими читателями. Если вы являетесь правообладателем какого-либо представленного материала и не желаете, чтобы ссылка на него находилась в нашем каталоге, свяжитесь с нами, и мы незамедлительно удалим ее. Файлы для обмена на трекере предоставлены пользователями сайта, и администрация не несет ответственности за их содержание. Просьба не заливать файлы, защищенные авторскими правами, а также файлы нелегального содержания!