[ Сегодня идет свободное скачивание без начисления Download ]


Статистика раздачи
Скачал: [ 1 ]
 
   
 
Top  
 
 
Пророк / Next
«If you can see the future, you can save it.»
-Год выпуска: 2007
Выпущено: США / Paramount Pictures
Жанр: фантастика, фэнтези, боевик, триллер, мелодрама
Продолжительность: 01:36:10
Перевод: Дублированный + Двухголосый (П.Гланц, И.Королева, ТРК «Украина») + Авторский (Ю.Живов) + Английский (оригинал)
Режиссер: Ли Тамахори / Lee Tamahori
В ролях: Николас Кейдж, Джулианна Мур, Джессика Бил, Томас Кречманн, Тори Киттлз, Хосе Суньига, Джим Бивер, Джейсон Батлер Харнер, Майкл Трукко, Энзо Силенти, Питер Фальк, Николас Пэджон-Сюжет: У Криса Джонсона есть секрет, отравляющий его жизнь: он может предсказывать ближайшее будущее. Устав от бесконечного внимания правительства и медицинских центров, пытающихся разгадать природу его удивительных способностей, Крис ложится на дно.
Под вымышленным именем он работает в Лас-Вегасе, где развлекает публику дешевыми фокусами. Но когда группа террористов угрожает Лос-Анджелесу, специальному агенту Калли Феррис придется собрать все силы, чтобы разыскать Криса и убедить его помочь предотвратить катастрофу.-IMDB // КиноПоиск-Качество видео: BDRip 1080p
Формат: MKV
Видео кодек: H.264
Аудио кодек: AC3 / DTS
Видео: H.264, 1920 x 796, 23.976 fps, ~16822 Кбит/с
Аудио #1: DTS, 768 Кбит/с, 48 kHz (6 ch) Russian R5
Аудио #2: AC3, 448 Кбит/с, 48 kHz (6 ch) Russian / П.Гланц, И.Королева
Аудио #3: AC3, 448 Кбит/с, 48 kHz (6 ch) Russian / Ю.Живов
Аудио #4: AC3, 256 Кбит/с, 48 kHz (2 ch) Ukrainian / ТРК «Украина»
Аудио #5: DTS, 1536 Кбит/с, 48 kHz (6 ch) English
Cубтитры: Русские, Украинские, Английские
Навигация: 18 глав
-

Source vs Encode



MediaInfo / x264

x264

avs [info]: 1920x796p 1:1 @ 24000/1001 fps (cfr)
x264 [info]: using SAR=1/1
x264 [info]: using cpu capabilities: MMX2 SSE2Fast SSSE3 FastShuffle SSE4.1 Cache64
x264 [info]: profile High, level 4.1
x264 [info]: frame I:1144  Avg QP:17.52  size:286327
x264 [info]: frame P:29087 Avg QP:18.17  size:137479
x264 [info]: frame B:108129 Avg QP:20.93  size: 72210
x264 [info]: consecutive B-frames:  2.5%  1.9%  5.0% 21.7% 15.0% 35.2%  8.1%  8.6%  1.9%
x264 [info]: mb I  I16..4:  5.3% 86.0%  8.7%
x264 [info]: mb P  I16..4:  1.4% 32.7%  1.1%  P16..4: 27.0% 22.9%  5.8%  1.0%  0.2%    skip: 8.0%
x264 [info]: mb B  I16..4:  0.1%  4.2%  0.1%  B16..8: 42.8% 18.2%  7.4%  direct:10.9%  skip:16.3%  L0:43.4% L1:41.1% BI:15.6%
x264 [info]: 8x8 transform intra:93.0% inter:65.4%
x264 [info]: direct mvs  spatial:100.0% temporal:0.0%
x264 [info]: coded y,uvDC,uvAC intra: 95.4% 94.5% 82.6% inter: 59.1% 42.7% 10.7%
x264 [info]: i16 v,h,dc,p: 67% 11%  6% 17%
x264 [info]: i8 v,h,dc,ddl,ddr,vr,hd,vl,hu:  8%  7% 13% 11% 13% 12% 12% 12% 12%
x264 [info]: i4 v,h,dc,ddl,ddr,vr,hd,vl,hu: 13% 11%  5% 10% 13% 12% 13% 10% 13%
x264 [info]: i8c dc,h,v,p: 52% 14% 15% 19%
x264 [info]: Weighted P-Frames: Y:2.0% UV:1.2%
x264 [info]: ref P L0: 43.8% 10.9% 25.6%  9.5%  9.6%  0.6%  0.0%
x264 [info]: ref B L0: 77.3% 15.7%  5.3%  1.6%
x264 [info]: ref B L1: 92.7%  7.3%
x264 [info]: kb/s:16821.85
x264 [total]: encoded 138360 frames, 1.14 fps, 16821.85 kb/s

MediaInfo

General
Unique ID                        : 223630919389045654087782080214289235968 (0xA83DBF98130B89A1AF171825E34E4000)
Complete name                    : D:\VIDEO\Next.2007.BDRip.1080p.3xRus.Ukr.Eng.mkv
Format                           : Matroska
Format version                   : Version 2
File size                        : 13.6 GiB
Duration                         : 1h 36mn
Overall bit rate                 : 20.3 Mbps
Movie name                       : Next 2007
Encoded date                     : UTC 2011-09-23 08:32:09
Writing application              : mkvmerge v4.9.1 ('Ich will') built on Jul 11 2011 23:53:15
Writing library                  : libebml v1.2.1 + libmatroska v1.1.1
Video
ID                               : 1
Format                           : AVC
Format/Info                      : Advanced Video Codec
Format profile                   : High@L4.1
Format settings, CABAC           : Yes
Format settings, ReFrames        : 5 frames
Codec ID                         : V_MPEG4/ISO/AVC
Duration                         : 1h 36mn
Bit rate                         : 16.4 Mbps
Width                            : 1 920 pixels
Height                           : 796 pixels
Display aspect ratio             : 2.40:1
Frame rate                       : 23.976 fps
Color space                      : YUV
Chroma subsampling               : 4:2:0
Bit depth                        : 8 bits
Scan type                        : Progressive
Bits/(Pixel*Frame)               : 0.448
Stream size                      : 11.0 GiB (81%)
Title                            : Next
Writing library                  : x264 core 116 r2074 2641b9e
Encoding settings                : cabac=1 / ref=5 / deblock=1:-3:-3 / analyse=0x3:0x133 / me=umh / subme=10 / psy=1 / psy_rd=1.00:0.00 / mixed_ref=1 / me_range=24 / chroma_me=1 / trellis=2 / 8x8dct=1 / cqm=0 / deadzone=21,11 / fast_pskip=0 / chroma_qp_offset=-2 / threads=6 / sliced_threads=0 / nr=0 / decimate=1 / interlaced=0 / bluray_compat=0 / constrained_intra=0 / bframes=8 / b_pyramid=2 / b_adapt=2 / b_bias=0 / direct=3 / weightb=1 / open_gop=0 / weightp=2 / keyint=250 / keyint_min=23 / scenecut=40 / intra_refresh=0 / rc_lookahead=60 / rc=crf / mbtree=0 / crf=18.0 / qcomp=0.65 / qpmin=0 / qpmax=69 / qpstep=4 / vbv_maxrate=50000 / vbv_bufsize=62500 / crf_max=0.0 / nal_hrd=none / ip_ratio=1.40 / pb_ratio=1.30 / aq=1:0.80
Language                         : English
Matrix coefficients              : BT.709-5, BT.1361, IEC 61966-2-4 709, SMPTE RP177
Audio #1
ID                               : 2
Format                           : DTS
Format/Info                      : Digital Theater Systems
Codec ID                         : A_DTS
Duration                         : 1h 36mn
Bit rate mode                    : Constant
Bit rate                         : 755 Kbps
Channel(s)                       : 6 channels
Channel positions                : Front: L C R, Side: L R, LFE
Sampling rate                    : 48.0 KHz
Bit depth                        : 24 bits
Compression mode                 : Lossy
Stream size                      : 519 MiB (4%)
Title                            : Дубляж
Language                         : Russian
Audio #2
ID                               : 3
Format                           : AC-3
Format/Info                      : Audio Coding 3
Mode extension                   : CM (complete main)
Codec ID                         : A_AC3
Duration                         : 1h 36mn
Bit rate mode                    : Constant
Bit rate                         : 448 Kbps
Channel(s)                       : 6 channels
Channel positions                : Front: L C R, Side: L R, LFE
Sampling rate                    : 48.0 KHz
Bit depth                        : 16 bits
Compression mode                 : Lossy
Stream size                      : 308 MiB (2%)
Title                            : П.Гланц, И.Королева
Language                         : Russian
Audio #3
ID                               : 4
Format                           : AC-3
Format/Info                      : Audio Coding 3
Mode extension                   : CM (complete main)
Codec ID                         : A_AC3
Duration                         : 1h 36mn
Bit rate mode                    : Constant
Bit rate                         : 448 Kbps
Channel(s)                       : 6 channels
Channel positions                : Front: L C R, Side: L R, LFE
Sampling rate                    : 48.0 KHz
Bit depth                        : 16 bits
Compression mode                 : Lossy
Stream size                      : 308 MiB (2%)
Title                            : Ю.Живов
Language                         : Russian
Audio #4
ID                               : 5
Format                           : AC-3
Format/Info                      : Audio Coding 3
Mode extension                   : CM (complete main)
Codec ID                         : A_AC3
Duration                         : 1h 36mn
Bit rate mode                    : Constant
Bit rate                         : 256 Kbps
Channel(s)                       : 2 channels
Channel positions                : Front: L R
Sampling rate                    : 48.0 KHz
Bit depth                        : 16 bits
Compression mode                 : Lossy
Stream size                      : 176 MiB (1%)
Title                            : ТРК «Украина»
Language                         : Ukrainian
Audio #5
ID                               : 6
Format                           : DTS
Format/Info                      : Digital Theater Systems
Codec ID                         : A_DTS
Duration                         : 1h 36mn
Bit rate mode                    : Constant
Bit rate                         : 1 510 Kbps
Channel(s)                       : 6 channels
Channel positions                : Front: L C R, Side: L R, LFE
Sampling rate                    : 48.0 KHz
Bit depth                        : 24 bits
Compression mode                 : Lossy
Stream size                      : 1.01 GiB (7%)
Title                            : Английский
Language                         : English
Text #1
ID                               : 7
Format                           : UTF-8
Codec ID                         : S_TEXT/UTF8
Codec ID/Info                    : UTF-8 Plain Text
Title                            : Русские
Language                         : Russian
Text #2
ID                               : 8
Format                           : UTF-8
Codec ID                         : S_TEXT/UTF8
Codec ID/Info                    : UTF-8 Plain Text
Title                            : Украинские
Language                         : Ukrainian
Text #3
ID                               : 9
Format                           : UTF-8
Codec ID                         : S_TEXT/UTF8
Codec ID/Info                    : UTF-8 Plain Text
Title                            : Английские
Language                         : English
Menu
00:00:00.000                     : en:Chapter 1
00:02:28.773                     : en:Chapter 2
00:10:06.314                     : en:Chapter 3
00:11:45.955                     : en:Chapter 4
00:16:14.974                     : en:Chapter 5
00:20:14.421                     : en:Chapter 6
00:21:02.678                     : en:Chapter 7
00:27:54.881                     : en:Chapter 8
00:30:17.524                     : en:Chapter 9
00:36:18.634                     : en:Chapter 10
00:42:12.613                     : en:Chapter 11
00:48:20.772                     : en:Chapter 12
00:56:10.617                     : en:Chapter 13
01:02:01.092                     : en:Chapter 14
01:11:04.927                     : en:Chapter 15
01:19:16.877                     : en:Chapter 16
01:26:07.078                     : en:Chapter 17
01:30:36.681                     : en:Chapter 18

[Цитировать]



Показать сообщения:    

Текущее время: 08-Дек 17:15

Часовой пояс: UTC + 3


Вы не можете начинать темы
Вы не можете отвечать на сообщения
Вы не можете редактировать свои сообщения
Вы не можете удалять свои сообщения
Вы не можете голосовать в опросах
Вы не можете прикреплять файлы к сообщениям
Вы не можете скачивать файлы

!ВНИМАНИЕ!
Сайт не предоставляет электронные версии произведений, а занимается лишь коллекционированием и каталогизацией ссылок, присылаемых и публикуемых на форуме нашими читателями. Если вы являетесь правообладателем какого-либо представленного материала и не желаете, чтобы ссылка на него находилась в нашем каталоге, свяжитесь с нами, и мы незамедлительно удалим ее. Файлы для обмена на трекере предоставлены пользователями сайта, и администрация не несет ответственности за их содержание. Просьба не заливать файлы, защищенные авторскими правами, а также файлы нелегального содержания!