[ Сегодня идет свободное скачивание без начисления Download ]


Статистика раздачи
Нет
 
   
 
Top  
 
 
Пипец / KICK-ASS
«Заткнись. Мочи.»
-Страна: США, Великобритания
Студии: Marv Films, Plan B Entertainment
Жанр: боевик, триллер, криминал
Год выпуска: 2010
Продолжительность: 01:57:44-Перевод: профессиональный (дублированный без цензуры) лицензия
Субтитры: нет-Режиссёр: Мэттью Вон / Matthew Vaughn-В ролях: Аарон Джонсон, Кристофер Минц-Плассе, Марк Стронг, Хлоя Моретц, Николас Кейдж, Гэррет М. Браун, Кларк Дьюк, Ивэн Питерс, Дебора Твисс, Линдси Фонсека, Софи Ву, Элизабет МакГоверн, Стю «Ладж» Райли.-Описание:
Главный герой — школьник Дэйв Лизевски, который, вырядившись в костюм супергероя, пытается бороться с преступниками, хотя не обладает для этого никакими способностями. Параллельно два персонажа — 11-летняя девочка, которая крошит гангстеров мечом и сынок гангстера, ведущий собственное расследование, пытаются выяснить личность Дэйва…
-[imdb]tt1250777[/imdb] [kp]419200[/kp]-Качество видео: BDRip (Исходник BDRemux 1080p)
Формат файла: AVI
Видео: XviD, 720x304 (2.35:1), 23.976 fps, 1381 kbps avg, 0.263 bit/pixel
Аудио: 48 kHz, AC3 Dolby Digital, 3/2 (L,C,R,l,r) + LFE ch, 384 kbps avg (Rus DUB без ценз.)-

MediaInfo

Общее
Полное имя : D:\Torrent Rutracker\Kick-Ass.2010.DUB.no.censors.XviD.AC3.BDRip._by.ZNG505_.avi
Формат : AVI
Формат/Информация : Audio Video Interleave
Размер файла : 1,46 Гбайт
Продолжительность : 1 ч. 57 м.
Общий поток : 1774 Кбит/сек
Программа кодирования : VirtualDubModRus 1.5.10.2 (build 2542/release)
Библиотека кодирования : VirtualDubMod build 2542/release
Видео
Идентификатор : 0
Формат : MPEG-4 Visual
Профиль формата : Advanced Simple@L5
Параметр BVOP формата : 1
Параметр QPel формата : Нет
Параметр GMC формата : Без точки перехода
Параметр матрицы формата : Выборочная
Идентификатор кодека : XVID
Идентификатор кодека/Подсказка : XviD
Продолжительность : 1 ч. 57 м.
Битрейт : 1381 Кбит/сек
Ширина : 720 пикселей
Высота : 304 пикселя
Соотношение сторон : 2,35:1
Частота кадров : 23,976 кадра/сек
Цветовое пространство : YUV
Субдискретизация насыщенности : 4:2:0
Битовая глубина : 8 бит
Тип развёртки : Прогрессивная
Метод сжатия : С потерями
Бит/(Пиксели*Кадры) : 0.263
Размер потока : 1,14 Гбайт (78%)
Библиотека кодирования : XviD 65
Аудио
Идентификатор : 1
Формат : AC-3
Формат/Информация : Audio Coding 3
Расширение режима : CM (complete main)
Идентификатор кодека : 2000
Продолжительность : 1 ч. 57 м.
Вид битрейта : Постоянный
Битрейт : 384 Кбит/сек
Каналы : 6 каналов
Расположение каналов : Front: L C R, Side: L R, LFE
Частота : 48,0 КГц
Битовая глубина : 16 бит
Метод сжатия : С потерями
Размер потока : 323 Мбайт (22%)
Выравнивание : Разделение по промежуткам
Продолжительность промежутка : 42 мс. (1,00 видеокадр)
Время предзагрузки промежутка : 500 мс.
Заголовок : Rus DUB без цензуры

Скриншот c названием фильма

Скриншоты


[Цитировать]



Показать сообщения:    

Текущее время: 11-Дек 16:46

Часовой пояс: UTC + 3


Вы не можете начинать темы
Вы не можете отвечать на сообщения
Вы не можете редактировать свои сообщения
Вы не можете удалять свои сообщения
Вы не можете голосовать в опросах
Вы не можете прикреплять файлы к сообщениям
Вы не можете скачивать файлы

!ВНИМАНИЕ!
Сайт не предоставляет электронные версии произведений, а занимается лишь коллекционированием и каталогизацией ссылок, присылаемых и публикуемых на форуме нашими читателями. Если вы являетесь правообладателем какого-либо представленного материала и не желаете, чтобы ссылка на него находилась в нашем каталоге, свяжитесь с нами, и мы незамедлительно удалим ее. Файлы для обмена на трекере предоставлены пользователями сайта, и администрация не несет ответственности за их содержание. Просьба не заливать файлы, защищенные авторскими правами, а также файлы нелегального содержания!