[ Сегодня идет свободное скачивание без начисления Download ]


Статистика раздачи
Нет
 
   
 
Top  
 
 
-Мерцание / Flicker (2012) BDRip- Русское название: Мерцание
Оригинальное название: Flicker
Страна: Швеция
Студия: BOB Film Sweden AB
Год выпуска: 2012
Жанр: Комедия, Драма-Описание фильма:
В маленьком городке Бакберге происходят значительные события. Телекоммуникационная компания Юником вот-вот запустит новый современный профиль...и в этот момент на окраине города, происходит крупная авария, вызывающая сбой питания во всем городе. Это происшествие влечет за собой цепь событий, переплетающую судьбы самых разных людей: тихий и неприметный работник компании Юником встречает уборщицу, страдающую арахнофобией, а забывчивый электрик, из-за которого произошла авария, выясняет, что у него редкая аллергия на электричество, которая помогает ему раскрыть заговор группы экстремистов. Мерцание - это теплый комический рассказ о людях, пытающихся найти свое место в современном обществе.-Режиссер: Патрик Эклунд / Patrik Eklund
Актеры: Керстин Андерссон, Сиселла Бенн, Матс Бергман, Кьель Бергквист, Nilsgustaf Bergstr?m, Питер Карлберг, Александр Дальстрём, Ронни Эрикссон, Saga Eserstam, Ингар Хэльге Гимле-Продолжительность: 01:34:46
Перевод: Любительский (двухголосый закадровый) den904, DeadSno |Ненормативная лексика|
Оригинальная аудиодорожка: шведский
Cубтитры: шведские, датские- -Видеокодек: MPEG-4 AVC/H.264
Битрейт видео: ~5 671 Kbps
Размер кадра: 1280x544p
Качество видео: BDRip 720p-Аудио 1: Русский DTS; 1536 Kbps; CBR; 6 ch; 48 khz; 24 bit
Аудио 2: Шведский DTS; 1536 Kbps; CBR; 6 ch; 48 khz; 24 bit
-

MediaInfo:

General
Complete name : O:\Мерцание.2012.DVO.720p.mkv
Format : Matroska
File size : 5.87 GiB
Duration : 1h 34mn
Overall bit rate : 8 867 Kbps
Encoded date : UTC 2013-03-29 14:15:33
Writing application : mkvmerge v6.1.0 ('Old Devil') built on Mar 2 2013 14:32:37
Writing library : libebml v1.3.0 + libmatroska v1.4.0
Video
ID : 1
Format : AVC
Format/Info : Advanced Video Codec
Format profile : High@L4.1
Format settings, CABAC : Yes
Format settings, ReFrames : 12 frames
Muxing mode : Container profile=Unknown@4.1
Codec ID : V_MPEG4/ISO/AVC
Duration : 1h 34mn
Bit rate : 5 671 Kbps
Width : 1 280 pixels
Height : 544 pixels
Display aspect ratio : 2.35:1
Frame rate : 25.000 fps
Resolution : 8 bits
Colorimetry : 4:2:0
Scan type : Progressive
Bits/(Pixel*Frame) : 0.326
Stream size : 3.75 GiB (64%)
Writing library : x264 core 129 r2245 bc13772
Encoding settings : cabac=1 / ref=12 / deblock=1:-3:-3 / analyse=0x3:0x133 / me=tesa / subme=11 / psy=1 / psy_rd=1.00:0.15 / mixed_ref=1 / me_range=24 / chroma_me=1 / trellis=2 / 8x8dct=1 / cqm=0 / deadzone=21,11 / fast_pskip=0 / chroma_qp_offset=-3 / threads=18 / lookahead_threads=3 / sliced_threads=0 / nr=0 / decimate=1 / interlaced=0 / bluray_compat=0 / constrained_intra=0 / bframes=16 / b_pyramid=2 / b_adapt=2 / b_bias=0 / direct=3 / weightb=1 / open_gop=0 / weightp=2 / keyint=250 / keyint_min=25 / scenecut=40 / intra_refresh=0 / rc_lookahead=60 / rc=crf / mbtree=1 / crf=16.0 / qcomp=0.60 / qpmin=0 / qpmax=69 / qpstep=4 / ip_ratio=1.40 / aq=1:1.00
Language : Swedish
Audio #1
ID : 2
Format : DTS
Format/Info : Digital Theater Systems
Codec ID : A_DTS
Duration : 1h 34mn
Bit rate mode : Constant
Bit rate : 1 510 Kbps
Channel(s) : 6 channels
Channel positions : Front: L C R, Surround: L R, LFE
Sampling rate : 48.0 KHz
Resolution : 24 bits
Stream size : 1 023 MiB (17%)
Title : DVO [den904, DeadSno]
Language : Russian
Audio #2
ID : 3
Format : DTS
Format/Info : Digital Theater Systems
Codec ID : A_DTS
Duration : 1h 34mn
Bit rate mode : Constant
Bit rate : 1 510 Kbps
Channel(s) : 6 channels
Channel positions : Front: L C R, Surround: L R, LFE
Sampling rate : 48.0 KHz
Resolution : 24 bits
Stream size : 1 023 MiB (17%)
Language : Swedish
Text #1
ID : 4
Format : UTF-8
Codec ID : S_TEXT/UTF8
Codec ID/Info : UTF-8 Plain Text
Title : retail (danish)
Language : Swedish
Text #2
ID : 5
Format : UTF-8
Codec ID : S_TEXT/UTF8
Codec ID/Info : UTF-8 Plain Text
Title : retail (swedish)
Language : Swedish
Menu
00:00:00.000 : en:00:00:00.000
00:09:15.920 : en:00:09:15.920
00:18:37.960 : en:00:18:37.960
00:30:00.720 : en:00:30:00.720
00:42:11.400 : en:00:42:11.400
00:50:37.000 : en:00:50:37.000
01:00:01.760 : en:01:00:01.760
01:08:05.120 : en:01:08:05.120
01:21:36.360 : en:01:21:36.360
01:32:00.800 : en:01:32:00.800
-Скриншоты:
Время раздачи: 24/7 - круглосуточно

[Цитировать]



Показать сообщения:    

Текущее время: 10-Дек 15:50

Часовой пояс: UTC + 3


Вы не можете начинать темы
Вы не можете отвечать на сообщения
Вы не можете редактировать свои сообщения
Вы не можете удалять свои сообщения
Вы не можете голосовать в опросах
Вы не можете прикреплять файлы к сообщениям
Вы не можете скачивать файлы

!ВНИМАНИЕ!
Сайт не предоставляет электронные версии произведений, а занимается лишь коллекционированием и каталогизацией ссылок, присылаемых и публикуемых на форуме нашими читателями. Если вы являетесь правообладателем какого-либо представленного материала и не желаете, чтобы ссылка на него находилась в нашем каталоге, свяжитесь с нами, и мы незамедлительно удалим ее. Файлы для обмена на трекере предоставлены пользователями сайта, и администрация не несет ответственности за их содержание. Просьба не заливать файлы, защищенные авторскими правами, а также файлы нелегального содержания!