[ Сегодня идет свободное скачивание без начисления Download ]


Статистика раздачи
Нет
 
   
 
Top  
 
 
-Хоббит: Нежданное путешествие / The Hobbit: An Unexpected Journey (2012) Blu-ray
«From the smallest beginnings come the greatest legends.»
- Русское название: Хоббит: Нежданное путешествие
Оригинальное название: The Hobbit: An Unexpected Journey
Год выпуска: 2012
Производство: New Line Cinema / Metro-Goldwyn-Mayer [США, Новая Зеландия]
Жанр: Фэнтези, приключения
Перевод: Дублированный [лицензия]
Субтитры: Вшитые отключаемые
Язык субтитров: Русский, украинский, английский, китайский, корейский, чешский, индонезийский, хорватский, эстонский, греческий, латышский, литовский, сербский, словенский, тайский, турецкий
Режиссер: Питер Джексон
Актеры: Мартин Фриман, Иэн МакКеллен, Ричард Армитэдж, Джеймс Несбитт, Кен Стотт, Кейт Бланшетт, Элайджа Вуд, Хьюго Уивинг, Кристофер Ли, Энди Серкис
Описание фильма:
Фильм повествует о путешествии Бильбо Бэггинса, который пускается в поход, целью которого является отвоевание утраченного королевства гномов Эребор у зловещего дракона Смога. Совершенно неожиданно с хоббитом налаживает контакт волшебник Гэндальф Серый. Так Бильбо находит себя, присоединяясь к компании тринадцати гномов, возглавляемых легендарным воином, Торином Дубощитом. Их путешествие проляжет через Дикий Край, через предательские земли, населенные гоблинами и орками, смертоносными варгами и гигантскими пауками, народом, меняющим шкуры, и волшебниками. И хотя их цель находится на Востоке среди пустошей Одинокой Горы, сначала им придется выбраться из туннелей гоблинов, где Бильбо встретит существо, которое изменит его жизнь навсегда… Голлума.
Дата мировой премьеры: 28 ноября 2012
Дата российской премьеры: 19 декабря 2012, «Каро-Премьер»
Дата выхода DVD релиза: 11 апреля 2013, «CP Дистрибуция»
Дата выхода Blu-Ray релиза: 11 апреля 2013, «CP Дистрибуция»
Рейтинг PG-13 - Детям до 13 лет просмотр не желателен

Продолжительность: 02:49:37 + 02:07:07
Качество видео: Blu-ray 1080p
Видео: MPEG4_AVC, 1920x1080, ~20852 kbps, 23.976 fps
Аудио 1: DTS-HD MA 7.1, 5334 kbps [Английский - оригинал]
Аудио 2: AC3 5.1, 448 kbps [Чешский - дублированный]
Аудио 3: AC3 5.1, 448 kbps [Русский - дублированный]
Аудио 4: AC3 5.1, 448 kbps [Тайский - дублированный]
Аудио 5: AC3 5.1, 448 kbps [Турецкий - дублированный]
Аудио 6: AC3 5.1, 448 kbps [Украинский - дублированный]

Bonus

  • New Zealand: Home of Middle-Earth (HD, 7 minutes): Jackson and his team tour the lush, always stunning New Zealand countryside, revealing the locations used to bring The Hobbit's Middle-Earth locales to life.
  • Video Blogs (HD, 127 minutes): Ten Jackson-helmed online video blogs are available, documenting (but primarily teasing) the production of the then-upcoming theatrical release of An Unexpected Journey. Two hours of content is much appreciated, don't get me wrong. But, excellent, informative and entertaining as they are, the blogs are bound by rules full-fledged production documentaries have the freedom to discard at the outset. Arriving before the film debuted, the blogs' chief goal was secrecy, making them more of an extended two-hour promo for the film than anything more extensive. Entries include:
    Start of Production (April 14, 2011)
    Location Scouting (July 9, 2011)
    Shooting Block One (July 21, 2011)
    Filming in 3D (November 4, 2011)
    Locations Part I (December 24, 2011)
    Locations Part II (March 2, 2012)
    Stone St. Studios Tour (June 6, 2012)
    Wrap of Principal Photography (July 24, 2012)
    Post-Production Overview (November 24, 2012)
    Wellington World Premiere (December 14, 2012)
  • Trailers (HD, 16 minutes): Six full and alternate Unexpected Journey trailers.
  • Game Trailers (HD, 2 minutes): Kingdoms of Middle-Earth, Guardians of Middle-Earth and LEGO LOTR.
Субтитры: Русские, английские, японские, французские, немецкие, итальянские, испанские, голландские, китайские, корейские, чешские греческие, венгерские, польские, португальские, тайские, турецкие
Видео: MPEG4_AVC, 1920x1080, ~11911 kbps, 23.976 fps
Аудио: AC3 2.0, 192 kbps [Английский]

Disk 1 (фильм):

ISC INFO:
Disc Title: The.Hobbit.An.Unexpected.Journey.(2012).Blu-ray1.[1080p].2D
Disc Size: 39 214 820 682 bytes
Protection: AACS
BD-Java: Yes
BDInfo: 0.5.8
PLAYLIST REPORT:
Name: 00100.MPLS
Length: 2:49:37.208 (h:m:s.ms)
Size: 38 693 597 184 bytes
Total Bitrate: 30,42 Mbps
VIDEO:
Codec Bitrate Description
----- ------- -----------
MPEG-4 AVC Video 20852 kbps 1080p / 23,976 fps / 16:9 / High Profile 4.1
AUDIO:
Codec Language Bitrate Description
----- -------- ------- -----------
DTS-HD Master Audio English 5334 kbps 7.1 / 48 kHz / 5334 kbps / 24-bit (DTS Core: 5.1 / 48 kHz / 1509 kbps / 24-bit)
Dolby Digital Audio Czech 448 kbps 5.1 / 48 kHz / 448 kbps / DN -4dB
Dolby Digital Audio Russian 448 kbps 5.1 / 48 kHz / 448 kbps / DN -4dB
Dolby Digital Audio Thai 448 kbps 5.1 / 48 kHz / 448 kbps / DN -4dB
Dolby Digital Audio Turkish 448 kbps 5.1 / 48 kHz / 448 kbps / DN -4dB
Dolby Digital Audio Ukrainian 448 kbps 5.1 / 48 kHz / 448 kbps / DN -4dB
SUBTITLES:
Codec Language Bitrate Description
----- -------- ------- -----------
Presentation Graphics English 25,758 kbps
Presentation Graphics Chinese 18,231 kbps
Presentation Graphics Korean 15,865 kbps
Presentation Graphics Indonesian 26,115 kbps
Presentation Graphics Chinese 18,749 kbps
Presentation Graphics Croatian 20,884 kbps
Presentation Graphics Czech 20,502 kbps
Presentation Graphics Estonian 17,706 kbps
Presentation Graphics Greek 20,733 kbps
Presentation Graphics Latvian 17,375 kbps
Presentation Graphics Lithuanian 20,341 kbps
Presentation Graphics Russian 17,275 kbps
Presentation Graphics Serbian 19,590 kbps
Presentation Graphics Slovenian 17,494 kbps
Presentation Graphics Thai 21,075 kbps
Presentation Graphics Turkish 21,144 kbps
Presentation Graphics Czech 0,479 kbps
Presentation Graphics Russian 0,421 kbps
Presentation Graphics Thai 0,469 kbps
Presentation Graphics Turkish 0,476 kbps
Presentation Graphics Ukrainian 0,518 kbps
FILES:
Name Time In Length Size Total Bitrate
---- ------- ------ ---- -------------
00000.M2TS 0:00:00.000 2:49:37.208 38 693 597 184 30 416
CHAPTERS:
Number Time In Length Avg Video Rate Max 1-Sec Rate Max 1-Sec Time Max 5-Sec Rate Max 5-Sec Time Max 10Sec Rate Max 10Sec Time Avg Frame Size Max Frame Size Max Frame Time
------ ------- ------ -------------- -------------- -------------- -------------- -------------- -------------- -------------- -------------- -------------- --------------
1 0:00:00.000 0:08:51.530 20 175 kbps 32 270 kbps 00:07:09.470 26 210 kbps 00:07:06.008 25 755 kbps 00:07:06.008 105 174 bytes 514 713 bytes 00:02:16.678
2 0:08:51.530 0:04:07.372 20 354 kbps 30 882 kbps 00:09:57.305 27 873 kbps 00:09:57.305 26 672 kbps 00:09:53.259 106 118 bytes 626 905 bytes 00:12:13.524
3 0:12:58.903 0:03:35.715 20 170 kbps 27 546 kbps 00:13:40.110 25 056 kbps 00:13:19.340 23 511 kbps 00:13:04.617 105 157 bytes 518 156 bytes 00:13:21.801
4 0:16:34.618 0:04:16.047 19 448 kbps 24 716 kbps 00:17:19.455 20 864 kbps 00:19:57.154 20 607 kbps 00:20:00.157 101 391 bytes 316 046 bytes 00:19:26.081
5 0:20:50.666 0:04:18.341 20 635 kbps 27 032 kbps 00:22:59.044 24 309 kbps 00:22:57.793 22 759 kbps 00:22:58.210 107 584 bytes 283 006 bytes 00:25:08.215
6 0:25:09.007 0:08:05.401 19 680 kbps 28 317 kbps 00:31:54.829 23 101 kbps 00:30:12.227 22 586 kbps 00:31:15.582 102 601 bytes 419 188 bytes 00:26:56.281
7 0:33:14.409 0:05:12.395 19 184 kbps 25 366 kbps 00:33:55.658 23 966 kbps 00:33:55.658 22 447 kbps 00:33:50.987 100 014 bytes 280 908 bytes 00:33:54.365
8 0:38:26.804 0:05:13.563 22 986 kbps 35 082 kbps 00:40:46.152 32 215 kbps 00:40:46.152 30 589 kbps 00:40:46.152 119 839 bytes 544 957 bytes 00:41:42.875
9 0:43:40.367 0:06:31.933 21 020 kbps 31 268 kbps 00:46:48.722 27 992 kbps 00:45:27.850 26 159 kbps 00:45:26.765 109 588 bytes 380 511 bytes 00:48:33.619
10 0:50:12.300 0:05:04.637 21 566 kbps 32 777 kbps 00:50:40.412 29 243 kbps 00:50:25.772 28 334 kbps 00:50:20.600 112 435 bytes 457 427 bytes 00:51:47.646
11 0:55:16.938 0:01:47.899 21 725 kbps 29 531 kbps 00:55:40.920 26 194 kbps 00:55:24.738 25 320 kbps 00:55:40.920 113 263 bytes 475 090 bytes 00:55:28.867
12 0:57:04.838 0:10:47.104 21 492 kbps 31 873 kbps 01:05:05.151 26 020 kbps 01:06:42.707 24 770 kbps 01:03:46.614 112 050 bytes 386 882 bytes 00:59:25.019
13 1:07:51.942 0:04:19.425 21 137 kbps 28 473 kbps 01:11:05.678 25 580 kbps 01:11:05.302 23 986 kbps 01:11:00.297 110 199 bytes 419 328 bytes 01:08:23.432
14 1:12:11.368 0:03:52.190 22 682 kbps 32 439 kbps 01:15:02.998 28 545 kbps 01:15:49.002 26 737 kbps 01:14:56.909 118 252 bytes 546 872 bytes 01:13:40.707
15 1:16:03.558 0:06:02.904 23 357 kbps 37 864 kbps 01:16:46.268 30 822 kbps 01:17:07.789 29 511 kbps 01:19:31.975 121 772 bytes 558 824 bytes 01:20:55.976
16 1:22:06.463 0:06:43.528 21 108 kbps 30 079 kbps 01:24:03.121 27 333 kbps 01:23:58.992 25 645 kbps 01:23:55.655 110 049 bytes 504 268 bytes 01:22:57.806
17 1:28:49.991 0:03:13.526 19 694 kbps 24 095 kbps 01:31:24.520 21 713 kbps 01:31:20.641 21 470 kbps 01:31:15.595 102 676 bytes 362 088 bytes 01:30:36.931
18 1:32:03.518 0:01:39.015 20 380 kbps 26 084 kbps 01:32:32.213 22 393 kbps 01:32:28.209 21 568 kbps 01:32:24.539 106 253 bytes 378 825 bytes 01:33:26.058
19 1:33:42.533 0:06:47.073 20 228 kbps 24 590 kbps 01:37:12.368 21 673 kbps 01:40:06.792 21 117 kbps 01:34:03.137 105 462 bytes 367 310 bytes 01:39:52.194
20 1:40:29.606 0:02:37.240 20 593 kbps 24 871 kbps 01:40:57.885 22 885 kbps 01:40:57.760 22 175 kbps 01:40:54.423 107 365 bytes 380 666 bytes 01:40:33.736
21 1:43:06.847 0:06:06.115 22 490 kbps 37 274 kbps 01:47:35.490 27 328 kbps 01:43:41.798 26 448 kbps 01:43:41.840 117 250 bytes 502 343 bytes 01:43:54.311
22 1:49:12.963 0:04:51.624 21 291 kbps 30 930 kbps 01:53:20.043 25 382 kbps 01:53:19.459 24 307 kbps 01:53:14.496 111 004 bytes 346 217 bytes 01:51:53.039
23 1:54:04.587 0:02:53.506 23 301 kbps 31 106 kbps 01:56:36.948 26 730 kbps 01:54:35.243 26 180 kbps 01:54:31.906 121 481 bytes 356 049 bytes 01:56:36.990
24 1:56:58.094 0:13:29.850 21 280 kbps 31 240 kbps 02:08:45.968 24 906 kbps 02:08:43.966 23 354 kbps 02:00:44.403 110 942 bytes 505 048 bytes 01:58:29.602
25 2:10:27.945 0:01:58.076 23 204 kbps 29 428 kbps 02:12:24.394 25 851 kbps 02:10:30.364 24 715 kbps 02:12:15.385 120 976 bytes 327 380 bytes 02:12:26.021
26 2:12:26.021 0:01:11.696 20 530 kbps 28 647 kbps 02:12:40.702 22 147 kbps 02:12:36.782 21 351 kbps 02:12:43.872 107 033 bytes 376 007 bytes 02:12:44.081
27 2:13:37.718 0:04:21.719 23 821 kbps 33 751 kbps 02:17:04.257 28 072 kbps 02:17:00.253 26 890 kbps 02:16:54.956 124 189 bytes 343 985 bytes 02:14:49.247
28 2:17:59.437 0:02:09.921 20 531 kbps 28 374 kbps 02:18:37.100 24 736 kbps 02:18:33.763 22 350 kbps 02:18:28.842 107 039 bytes 411 371 bytes 02:18:37.934
29 2:20:09.359 0:02:49.752 22 090 kbps 32 780 kbps 02:20:21.621 28 125 kbps 02:20:21.788 27 910 kbps 02:20:21.287 115 170 bytes 456 918 bytes 02:20:34.008
30 2:22:59.112 0:10:59.450 22 626 kbps 35 054 kbps 02:24:23.780 28 567 kbps 02:26:42.126 26 429 kbps 02:26:37.121 117 962 bytes 373 098 bytes 02:30:02.410
31 2:33:58.562 0:05:28.995 21 607 kbps 38 999 kbps 02:39:06.036 31 721 kbps 02:39:13.585 30 759 kbps 02:39:08.789 112 647 bytes 453 691 bytes 02:34:37.977
32 2:39:27.558 0:10:09.650 13 662 kbps 32 913 kbps 02:49:29.576 26 431 kbps 02:45:59.699 24 909 kbps 02:45:58.865 71 236 bytes 606 096 bytes 02:49:33.121

Disk 2 (бонусы):

DISC INFO:
Disc Title: The.Hobbit.An.Unexpected.Journey.(2012).Blu-ray2.[1080p].Bonus
Disc Size: 16 235 208 839 bytes
Protection: AACS
BD-Java: Yes
BDInfo: 0.5.8
PLAYLIST REPORT:
Name: 00222.MPLS
Length: 2:07:07.828 (h:m:s.ms)
Size: 13 178 652 672 bytes
Total Bitrate: 13,82 Mbps
(*) Indicates included stream hidden by this playlist.
VIDEO:
Codec Bitrate Description
----- ------- -----------
MPEG-4 AVC Video 11911 kbps 1080p / 23,976 fps / 16:9 / High Profile 4.0
AUDIO:
Codec Language Bitrate Description
----- -------- ------- -----------
Dolby Digital Audio English 192 kbps 2.0 / 48 kHz / 192 kbps / DN -4dB / Dolby Surround
SUBTITLES:
Codec Language Bitrate Description
----- -------- ------- -----------
* Presentation Graphics Japanese 55,649 kbps
Presentation Graphics English 61,669 kbps
Presentation Graphics French 50,841 kbps
Presentation Graphics German 61,127 kbps
Presentation Graphics Italian 58,364 kbps
Presentation Graphics Spanish 60,357 kbps
Presentation Graphics Dutch 52,216 kbps
Presentation Graphics Chinese 53,755 kbps
Presentation Graphics Korean 39,524 kbps
Presentation Graphics Chinese 52,575 kbps
Presentation Graphics Czech 53,990 kbps
Presentation Graphics Greek 51,765 kbps
Presentation Graphics Hungarian 49,118 kbps
Presentation Graphics Polish 50,893 kbps
Presentation Graphics Portuguese 61,432 kbps
Presentation Graphics Russian 56,655 kbps
Presentation Graphics Thai 57,000 kbps
Presentation Graphics Turkish 53,937 kbps
FILES:
Name Time In Length Size Total Bitrate
---- ------- ------ ---- -------------
00001.M2TS 0:00:00.000 0:10:32.673 1 077 682 176 13 627
00002.M2TS 0:10:32.673 0:10:20.453 1 076 072 448 13 875
00004.M2TS 0:20:53.126 0:13:19.840 1 375 567 872 13 758
00024.M2TS 0:34:12.967 0:10:46.687 1 128 622 080 13 962
00025.M2TS 0:44:59.655 0:12:04.765 1 261 000 704 13 919
00026.M2TS 0:57:04.420 0:12:28.789 1 293 182 976 13 816
00027.M2TS 1:09:33.210 0:13:59.880 1 462 192 128 13 928
00028.M2TS 1:23:33.091 0:14:42.923 1 513 893 888 13 717
00029.M2TS 1:38:16.014 0:14:08.889 1 470 609 408 13 859
00030.M2TS 1:52:24.904 0:14:42.923 1 519 828 992 13 771
CHAPTERS:
Number Time In Length Avg Video Rate Max 1-Sec Rate Max 1-Sec Time Max 5-Sec Rate Max 5-Sec Time Max 10Sec Rate Max 10Sec Time Avg Frame Size Max Frame Size Max Frame Time
------ ------- ------ -------------- -------------- -------------- -------------- -------------- -------------- -------------- -------------- -------------- --------------
1 0:00:00.000 0:10:32.673 11 909 kbps 26 890 kbps 00:00:01.960 17 741 kbps 00:04:31.145 17 536 kbps 00:04:31.145 62 086 bytes 341 830 bytes 00:00:02.335
2 0:10:32.673 0:10:20.453 11 905 kbps 27 342 kbps 00:20:39.529 16 589 kbps 00:12:00.553 15 806 kbps 00:16:49.299 62 073 bytes 394 809 bytes 00:13:42.488
3 0:20:53.126 0:13:19.840 11 914 kbps 25 972 kbps 00:28:25.620 19 876 kbps 00:21:41.299 17 381 kbps 00:21:41.299 62 117 bytes 425 499 bytes 00:20:55.253
4 0:34:12.967 0:10:46.687 11 927 kbps 25 379 kbps 00:36:06.664 21 743 kbps 00:36:05.288 18 967 kbps 00:36:01.784 62 182 bytes 735 745 bytes 00:44:00.345
5 0:44:59.655 0:12:04.765 11 926 kbps 24 572 kbps 00:51:26.166 18 891 kbps 00:51:46.144 16 252 kbps 00:51:41.139 62 179 bytes 379 574 bytes 00:50:56.386
6 0:57:04.420 0:12:28.789 11 906 kbps 28 148 kbps 00:59:17.470 21 581 kbps 01:06:50.172 19 276 kbps 00:59:11.089 62 075 bytes 483 032 bytes 00:59:11.130
7 1:09:33.210 0:13:59.880 11 918 kbps 28 032 kbps 01:20:47.384 17 256 kbps 01:20:46.800 16 788 kbps 01:20:45.799 62 139 bytes 375 268 bytes 01:15:14.051
8 1:23:33.091 0:14:42.923 11 886 kbps 26 753 kbps 01:24:16.217 18 203 kbps 01:25:33.920 15 717 kbps 01:25:30.458 61 969 bytes 523 405 bytes 01:38:01.208
9 1:38:16.014 0:14:08.889 11 920 kbps 27 931 kbps 01:44:48.990 18 950 kbps 01:39:44.394 17 311 kbps 01:39:20.788 62 148 bytes 345 945 bytes 01:46:11.239
10 1:52:24.904 0:14:42.923 11 908 kbps 27 383 kbps 01:58:21.552 22 134 kbps 02:01:42.461 19 394 kbps 02:01:42.211 62 089 bytes 317 572 bytes 02:01:42.503
Скриншоты (Disk 1):

Скриншоты (Disk 2):

Время раздачи: 24/7 (до 10 скачавших)

[Цитировать]

Топик был перенесен из форума Новинки кинопроката (HD Video) в форум Зарубежное кино (HD Video)
Bootch



Показать сообщения:    

Текущее время: 08-Дек 21:15

Часовой пояс: UTC + 3


Вы не можете начинать темы
Вы не можете отвечать на сообщения
Вы не можете редактировать свои сообщения
Вы не можете удалять свои сообщения
Вы не можете голосовать в опросах
Вы не можете прикреплять файлы к сообщениям
Вы не можете скачивать файлы

!ВНИМАНИЕ!
Сайт не предоставляет электронные версии произведений, а занимается лишь коллекционированием и каталогизацией ссылок, присылаемых и публикуемых на форуме нашими читателями. Если вы являетесь правообладателем какого-либо представленного материала и не желаете, чтобы ссылка на него находилась в нашем каталоге, свяжитесь с нами, и мы незамедлительно удалим ее. Файлы для обмена на трекере предоставлены пользователями сайта, и администрация не несет ответственности за их содержание. Просьба не заливать файлы, защищенные авторскими правами, а также файлы нелегального содержания!