[ Сегодня идет свободное скачивание без начисления Download ]


Статистика раздачи
Нет
 
   
 
Top  
 
 
-Влюбленные / Belle du Seigneur (2012) DVDRip- Русское название: Влюбленные
Оригинальное название: Belle du Seigneur
Год выпуска: 2012
Производство: Франция, Люксембург, Германия, Бельгия, Швейцария, Великобритания / TNVO, Delux Productions, BDS
Жанр: драма, мелодрама
Перевод: Дублированный [лицензия]
Субтитры: Отсутствуют
Дата мировой премьеры: 5 июня 2013
Дата российской премьеры: 29 ноября 2012, «All Media», «Арена»
Дата выхода DVD релиза: 2 апреля 2013, «Lizard Cinema Trade»
Режиссер: Гленио Бондер
Актеры: Джонатан Риз Майерс, Наталья Водянова, Эд Стоппард, Марианна Фэйтфулл, Мария Бонневи, Джанин Хорсбур, Лесли Вудхолл, Джимми Де Брэбэнт, Стефан Вейнерт, Гилберт Джонстон
Описание фильма:
В 1930-е высокопоставленный чиновник Лиги Наций Солаль приезжает в Женеву. Там он знакомится с замужней аристократкой Арианой, и через некоторое время у них начинается страстный роман.

Продолжительность: 01:40:20
Качество видео: DVDRip
Видеокодек: Xvid
Битрейт видео: ~1620 Kb/s
Размер кадра: 720x288
Аудиокодек: AC3 5.1
Битрейт аудио: 448 Kb/s
Релиз группа:

MediaInfo:

Общее
Полное имя                               : F:\Фильмы\Влюбленные\Vljublennye.2012.D.DVDRip.avi
Формат                                   : AVI
Формат/Информация                        : Audio Video Interleave
Размер файла                             : 1,46 Гбайт
Продолжительность                        : 1 ч. 40 м.
Общий поток                              : 2079 Кбит/сек
Название фильма                          : Vljublennye.2012.D.DVDRip
Жанр                                     : Drama | Romance
Программа кодирования                    : VirtualDubMod 1.5.10.3 || (build 2550/release)
Формат оригинала/Имя                     : Movie
Видео
Идентификатор                            : 0
Формат                                   : MPEG-4 Visual
Профиль формата                          : Advanced Simple@L5
Параметр BVOP формата                    : 1
Параметр QPel формата                    : Нет
Параметр GMC формата                     : Без точки перехода
Параметр матрицы формата                 : Выборочная
Идентификатор кодека                     : XVID
Идентификатор кодека/Подсказка           : XviD
Продолжительность                        : 1 ч. 40 м.
Битрейт                                  : 1621 Кбит/сек
Ширина                                   : 720 пикселей
Высота                                   : 288 пикселей
Соотношение сторон                       : 2,500
Частота кадров                           : 25,000 кадров/сек
Цветовое пространство                    : YUV
Субдискретизация насыщенности            : 4:2:0
Битовая глубина                          : 8 бит
Тип развёртки                            : Прогрессивная
Метод сжатия                             : С потерями
Бит/(Пиксели*Кадры)                      : 0.313
Размер потока                            : 1,14 Гбайт (78%)
Библиотека кодирования                   : XviD 1.2.1 (UTC 2008-12-04)
Аудио
Идентификатор                            : 1
Формат                                   : AC-3
Формат/Информация                        : Audio Coding 3
Расширение режима                        : CM (complete main)
Параметр Endianness формата              : Big
Идентификатор кодека                     : 2000
Продолжительность                        : 1 ч. 40 м.
Вид битрейта                             : Постоянный
Битрейт                                  : 448 Кбит/сек
Каналы                                   : 6 каналов
Расположение каналов                     : Front: L C R, Side: L R, LFE
Частота                                  : 48,0 КГц
Битовая глубина                          : 16 бит
Метод сжатия                             : С потерями
Размер потока                            : 322 Мбайт (22%)
Выравнивание                             : Разделение по промежуткам
Продолжительность промежутка             : 40  мс. (1,00 видеокадр)
Время предзагрузки промежутка            : 500  мс.
Скриншоты:

[Цитировать]

Топик был перенесен из форума Новинки кинопроката в форум Драма
Henkok



Показать сообщения:    

Текущее время: 10-Дек 09:58

Часовой пояс: UTC + 3


Вы не можете начинать темы
Вы не можете отвечать на сообщения
Вы не можете редактировать свои сообщения
Вы не можете удалять свои сообщения
Вы не можете голосовать в опросах
Вы не можете прикреплять файлы к сообщениям
Вы не можете скачивать файлы

!ВНИМАНИЕ!
Сайт не предоставляет электронные версии произведений, а занимается лишь коллекционированием и каталогизацией ссылок, присылаемых и публикуемых на форуме нашими читателями. Если вы являетесь правообладателем какого-либо представленного материала и не желаете, чтобы ссылка на него находилась в нашем каталоге, свяжитесь с нами, и мы незамедлительно удалим ее. Файлы для обмена на трекере предоставлены пользователями сайта, и администрация не несет ответственности за их содержание. Просьба не заливать файлы, защищенные авторскими правами, а также файлы нелегального содержания!