[ Сегодня идет свободное скачивание без начисления Download ]


Статистика раздачи
Нет
 
   
 
Top  
 
 
-Хоббит: Нежданное путешествие / The Hobbit: An Unexpected Journey (2012) BDRip- Русское название: Хоббит: Нежданное путешествие
Оригинальное название: The Hobbit: An Unexpected Journey
Год выпуска: 2012
Производство: США, Новая Зеландия / 3Foot7, Metro-Goldwyn-Mayer (MGM), New Line Cinema
Жанр: Фэнтези, Приключения
Перевод: Дублированный (лицензия)
Язык субтитров: Русский (Blu-ray), русский (Voronine), русский (форс.), украинский (форс.), английский (SDH), английский (SDH-Colored)
Вид субтитров: Вшитые |отключаемые|
Режиссер: Питер Джексон
Актеры: Мартин Фриман, Йен МакКеллен, Ричард Армитидж, Джеймс Несбитт, Кен Стотт, Кейт Бланшетт, Элайджа Вуд, Хьюго Уивинг, Кристофер Ли, Энди Серкис
Описание фильма:
Фильм повествует о путешествии Бильбо Бэггинса, который пускается в грандиозный поход, целью которого является отвоевание утраченного королевства гномов Эребор у зловещего дракона Смога. Совершенно неожиданно с хоббитом налаживает контакт волшебник Гэндальф Серый. Так Бильбо находит себя, присоединяясь к компании тринадцати гномов, возглавляемых легендарным воином, Торином Дубощитом. Их путешествие проляжет через Дикий Край, через предательские земли, населенные гоблинами и орками, смертоносными варгами и гигантскими пауками, народом, меняющим шкуры, и волшебниками. И хотя их цель находится на Востоке среди пустошей Одинокой Горы, сначала им придется выбраться из туннелей гоблинов, где Бильбо встретит существо, которое изменит его жизнь навсегда… Голлума.

Дата мировой премьеры: 28 ноября 2012
Дата российской премьеры: 19 декабря 2012, «Каро-Премьер»
Дата выхода DVD релиза: 11 апреля 2013, «CP Дистрибуция»
Продолжительность: 02:49:37
Качество видео: BDRip-AVC
Видеокодек: MPEG-4 AVC/H.264
Видео: 920x384 (2,40:1), 23,976 fps, 1573 Кbps, 0.186 bit/pixel
Аудио#1: 48 kHz, AC3 Dolby Digital, 3/2 (L,C,R,l,r) + LFE ch, ~448.00 kbps avg (русский)
Аудио#2: 48 kHz, AC3 Dolby Digital, 3/2 (L,C,R,l,r) + LFE ch, ~448.00 kbps avg (английский)

MI

General
Unique ID : 187780258601192023421789481859914564057 (0x8D45298C863BF62FA56CFA3CC8A681D9)
Complete name : Hobbit.Nezhdannoje.Puteshestvie.2012.D.BDRip.x264.potroks.mkv
Format : Matroska
Format version : Version 4 / Version 2
File size : 2.93 GiB
Duration : 2h 49mn
Overall bit rate : 2 470 Kbps
Movie name : -=POTROKS=-
Encoded date : UTC 2013-04-02 18:43:34
Writing application : mkvmerge v5.9.0 ('On The Loose') built on Dec 15 2012 16:39:58
Writing library : libebml v1.3.0 + libmatroska v1.4.0
Video
ID : 1
Format : AVC
Format/Info : Advanced Video Codec
Format profile : High@L4.1
Format settings, CABAC : Yes
Format settings, ReFrames : 14 frames
Codec ID : V_MPEG4/ISO/AVC
Duration : 2h 49mn
Bit rate : 1 573 Kbps
Width : 920 pixels
Height : 384 pixels
Display aspect ratio : 2.40:1
Frame rate mode : Constant
Frame rate : 23.976 fps
Color space : YUV
Chroma subsampling : 4:2:0
Bit depth : 8 bits
Scan type : Progressive
Bits/(Pixel*Frame) : 0.186
Stream size : 1.81 GiB (62%)
Title : The Hobbit: An Unexpected Journey
Writing library : x264 core 125 r2208 d9d2288
Encoding settings : cabac=1 / ref=14 / deblock=1:-2:-1 / analyse=0x3:0x133 / me=umh / subme=9 / psy=1 / psy_rd=1.10:0.10 / mixed_ref=1 / me_range=32 / chroma_me=1 / trellis=2 / 8x8dct=1 / cqm=0 / deadzone=21,11 / fast_pskip=0 / chroma_qp_offset=-3 / threads=6 / lookahead_threads=1 / sliced_threads=0 / nr=0 / decimate=1 / interlaced=0 / bluray_compat=0 / constrained_intra=0 / bframes=15 / b_pyramid=2 / b_adapt=2 / b_bias=0 / direct=3 / weightb=1 / open_gop=0 / weightp=2 / keyint=240 / keyint_min=23 / scenecut=40 / intra_refresh=0 / rc_lookahead=150 / rc=2pass / mbtree=1 / bitrate=1573 / ratetol=1.0 / qcomp=0.70 / qpmin=0 / qpmax=69 / qpstep=4 / cplxblur=20.0 / qblur=0.5 / vbv_maxrate=20000 / vbv_bufsize=32000 / nal_hrd=none / ip_ratio=1.35 / aq=1:0.80
Language : English
Default : Yes
Forced : No
Audio #1
ID : 2
Format : AC-3
Format/Info : Audio Coding 3
Mode extension : CM (complete main)
Format settings, Endianness : Big
Codec ID : A_AC3
Duration : 2h 49mn
Bit rate mode : Constant
Bit rate : 448 Kbps
Channel(s) : 6 channels
Channel positions : Front: L C R, Side: L R, LFE
Sampling rate : 48.0 KHz
Bit depth : 16 bits
Compression mode : Lossy
Stream size : 544 MiB (18%)
Title : AC3 5.1 @ 448 kbps - DUB, Blu-ray
Language : Russian
Default : Yes
Forced : No
Audio #2
ID : 3
Format : AC-3
Format/Info : Audio Coding 3
Mode extension : CM (complete main)
Format settings, Endianness : Big
Codec ID : A_AC3
Duration : 2h 49mn
Bit rate mode : Constant
Bit rate : 448 Kbps
Channel(s) : 6 channels
Channel positions : Front: L C R, Side: L R, LFE
Sampling rate : 48.0 KHz
Bit depth : 16 bits
Compression mode : Lossy
Stream size : 544 MiB (18%)
Title : Original | DD 5.1 @ 448 kbps
Language : English
Default : No
Forced : No
Text #1
ID : 4
Format : UTF-8
Codec ID : S_TEXT/UTF8
Codec ID/Info : UTF-8 Plain Text
Title : Forced
Language : Russian
Default : Yes
Forced : Yes
Text #2
ID : 5
Format : UTF-8
Codec ID : S_TEXT/UTF8
Codec ID/Info : UTF-8 Plain Text
Title : Forced
Language : Ukrainian
Default : No
Forced : No
Text #3
ID : 6
Format : UTF-8
Codec ID : S_TEXT/UTF8
Codec ID/Info : UTF-8 Plain Text
Title : Blu-ray
Language : Russian
Default : No
Forced : No
Text #4
ID : 7
Format : UTF-8
Codec ID : S_TEXT/UTF8
Codec ID/Info : UTF-8 Plain Text
Title : Voronine
Language : Russian
Default : No
Forced : No
Text #5
ID : 8
Format : UTF-8
Codec ID : S_TEXT/UTF8
Codec ID/Info : UTF-8 Plain Text
Title : SDH
Language : English
Default : No
Forced : No
Text #6
ID : 9
Format : UTF-8
Codec ID : S_TEXT/UTF8
Codec ID/Info : UTF-8 Plain Text
Title : SDH-Colored
Language : English
Default : No
Forced : No
Menu
00:00:00.000 : en:Chapter 01
00:08:51.530 : en:Chapter 02
00:12:58.903 : en:Chapter 03
00:16:34.618 : en:Chapter 04
00:20:50.666 : en:Chapter 05
00:25:09.007 : en:Chapter 06
00:33:14.409 : en:Chapter 07
00:38:26.804 : en:Chapter 08
00:43:40.367 : en:Chapter 09
00:50:12.300 : en:Chapter 10
00:55:16.938 : en:Chapter 11
00:57:04.838 : en:Chapter 12
01:07:51.942 : en:Chapter 13
01:12:11.368 : en:Chapter 14
01:16:03.558 : en:Chapter 15
01:22:06.463 : en:Chapter 16
01:28:49.991 : en:Chapter 17
01:32:03.518 : en:Chapter 18
01:33:42.533 : en:Chapter 19
01:40:29.606 : en:Chapter 20
01:43:06.847 : en:Chapter 21
01:49:12.963 : en:Chapter 22
01:54:04.587 : en:Chapter 23
01:56:58.094 : en:Chapter 24
02:10:27.945 : en:Chapter 25
02:12:26.021 : en:Chapter 26
02:13:37.718 : en:Chapter 27
02:17:59.437 : en:Chapter 28
02:20:09.359 : en:Chapter 29
02:22:59.112 : en:Chapter 30
02:33:58.562 : en:Chapter 31
02:39:27.558 : en:Chapter 32

log@x.264

x264 [info]: frame I:1953 Avg QP:17.96 size: 52951
x264 [info]: frame P:57052 Avg QP:19.90 size: 17921
x264 [info]: frame B:185002 Avg QP:22.74 size: 4726
x264 [info]: consecutive B-frames: 2.2% 2.9% 8.4% 38.1% 16.4% 24.0% 3.1% 2.2% 0.6% 0.3% 0.1% 0.6% 0.1% 0.1% 0.3% 0.7%
x264 [info]: mb I I16..4: 11.8% 67.1% 21.1%
x264 [info]: mb P I16..4: 1.4% 9.9% 1.7% P16..4: 41.4% 17.0% 17.4% 1.5% 0.6% skip: 9.0%
x264 [info]: mb B I16..4: 0.1% 0.8% 0.2% B16..8: 38.0% 8.4% 3.1% direct: 4.6% skip:44.9% L0:39.4% L1:46.7% BI:13.9%
x264 [info]: 8x8 transform intra:74.2% inter:61.3%
x264 [info]: direct mvs spatial:94.5% temporal:5.5%
x264 [info]: coded y,uvDC,uvAC intra: 82.8% 83.6% 59.3% inter: 20.6% 21.3% 4.7%
x264 [info]: i16 v,h,dc,p: 31% 17% 9% 44%
x264 [info]: i8 v,h,dc,ddl,ddr,vr,hd,vl,hu: 8% 9% 4% 10% 15% 14% 15% 12% 14%
x264 [info]: i4 v,h,dc,ddl,ddr,vr,hd,vl,hu: 7% 7% 4% 10% 16% 14% 15% 12% 15%
x264 [info]: i8c dc,h,v,p: 44% 20% 17% 19%
x264 [info]: Weighted P-Frames: Y:6.4% UV:2.7%
x264 [info]: ref P L0: 51.1% 14.7% 12.4% 6.2% 3.6% 2.9% 2.2% 1.3% 1.2% 1.0% 0.8% 0.8% 0.7% 0.8% 0.2% 0.0%
x264 [info]: ref B L0: 82.0% 7.4% 3.5% 2.0% 1.4% 0.8% 0.7% 0.4% 0.9% 0.3% 0.3% 0.2% 0.1%
x264 [info]: ref B L1: 93.9% 6.1%
x264 [info]: kb/s:1572.27
Скриншоты:


Время раздачи: 24/7

[Цитировать]

Топик был перенесен из форума Новинки кинопроката в форум Фэнтези
Bootch



Показать сообщения:    

Текущее время: 08-Дек 10:51

Часовой пояс: UTC + 3


Вы не можете начинать темы
Вы не можете отвечать на сообщения
Вы не можете редактировать свои сообщения
Вы не можете удалять свои сообщения
Вы не можете голосовать в опросах
Вы не можете прикреплять файлы к сообщениям
Вы не можете скачивать файлы

!ВНИМАНИЕ!
Сайт не предоставляет электронные версии произведений, а занимается лишь коллекционированием и каталогизацией ссылок, присылаемых и публикуемых на форуме нашими читателями. Если вы являетесь правообладателем какого-либо представленного материала и не желаете, чтобы ссылка на него находилась в нашем каталоге, свяжитесь с нами, и мы незамедлительно удалим ее. Файлы для обмена на трекере предоставлены пользователями сайта, и администрация не несет ответственности за их содержание. Просьба не заливать файлы, защищенные авторскими правами, а также файлы нелегального содержания!