[ Сегодня идет свободное скачивание без начисления Download ]


Статистика раздачи
Нет
 
   
 
Top  
 
 
-Человек в железной маске / The Man in the Iron Mask (1998) BDRip- Русское название: Человек в железной маске
Оригинальное название: The Man in the Iron Mask
Выпущено: США, Великобритания
Производство: United Artists Corporation Ltd
Год выпуска: 1998
Жанр: Приключения, Драма-Описание фильма:
Во времена блеска и отчаяния измученной Франции король Людовик XIV вовсю наслаждается прелестями жизни, пока вся его страна голодает. Людовик, уверенный в абсолютности собственной власти, опасается лишь одного человека, способного положить конец его царствованию, — приговоренного им к пожизненному заключению и закованного в железную маску.
Но когда королевский эгоизм заходит слишком далеко, бывшие мушкетеры Атос, Портос и Арамис отваживаются спасти таинственного узника, который может стать единственной надеждой Франции на возрождение. Остается лишь вопрос: поможет ли им верный друг, славный д`Артаньян, — или будет драться против?..-Режиссер: Рэндолл Уоллес
Актеры: Леонардо ДиКаприо, Джереми Айронс, Джон Малкович, Жерар Депардье, Гэбриел Бирн, Анн Парийо, Жюдит Годреш, Эдвард Аттертон, Питер Сарсгаард, Хью Лори-Продолжительность: 02:12:15
Перевод: Профессиональный (полное дублирование) + Профессиональный (многоголосый закадровый) + Одноголосый закадровый (Ю.Живов)
Оригинальная аудиодорожка: английский
Субтитры: Русские, английские, vie, dan, dut, est, fin, fre, ger, hun, ita, nor, por, spa, swe, tur- -Видеокодек: MPEG-4 AVC/H.264
Битрейт видео: ~6 043 Kbps
Размер кадра: 1280x694з
Качество видео: BDRip 720p-Аудио 1: Русский DTS, 3/2 (L,C,R,l,r) + LFE ch, ~768.00 kbps avg | Дубляж, Blu-ray CEE
Аудио 2: Русский AC3, 2/0 (L,R) ch, ~192.00 kbps avg | Многоголосый
Аудио 3: Русский DTS, 3/2 (L,C,R,l,r) + LFE ch, ~1536.00 kbps avg | Ю.Живов
Аудио 4: Английский DTS, 3/2 (L,C,R,l,r) + LFE ch, ~1536.00 kbps avg | Original
Аудио 5: Английский AC3, 2/0 (L,R) ch, 224.00 kbps avg | Director's Commentary
-

MediaInfo:

General
Complete name : O:\The.Man.in.the.Iron.Mask.1998.720p.mkv
Format : Matroska
File size : 9.65 GiB
Duration : 2h 12mn
Overall bit rate : 10.4 Mbps
Movie name : The Man in the Iron Mask (1998)
Encoded date : UTC 2010-05-17 11:04:33
Writing application : mkvmerge v3.3.0 ('Language') built on Mar 24 2010 14:59:24
Writing library : libebml v0.8.0 + libmatroska v0.9.0
Video
ID : 1
Format : AVC
Format/Info : Advanced Video Codec
Format profile : High@L4.1
Format settings, CABAC : Yes
Format settings, ReFrames : 7 frames
Muxing mode : Container profile=Unknown@4.1
Codec ID : V_MPEG4/ISO/AVC
Duration : 2h 12mn
Bit rate : 6 043 Kbps
Nominal bit rate : 6 235 Kbps
Width : 1 280 pixels
Height : 694 pixels
Display aspect ratio : 16:9
Frame rate : 23.976 fps
Resolution : 8 bits
Colorimetry : 4:2:0
Scan type : Progressive
Bits/(Pixel*Frame) : 0.284
Stream size : 5.58 GiB (58%)
Writing library : x264 core 94 r1583 7608d73
Encoding settings : cabac=1 / ref=7 / deblock=1:-3:-3 / analyse=0x3:0x113 / me=tesa / subme=9 / psy=1 / psy_rd=0.80:0.00 / mixed_ref=1 / me_range=16 / chroma_me=1 / trellis=2 / 8x8dct=1 / cqm=0 / deadzone=21,11 / fast_pskip=0 / chroma_qp_offset=-2 / threads=12 / sliced_threads=0 / nr=0 / decimate=0 / interlaced=0 / constrained_intra=0 / bframes=6 / b_pyramid=2 / b_adapt=2 / b_bias=0 / direct=3 / weightb=1 / weightp=2 / keyint=250 / keyint_min=25 / scenecut=40 / intra_refresh=0 / rc=2pass / mbtree=0 / bitrate=6235 / ratetol=1.0 / qcomp=0.60 / qpmin=10 / qpmax=51 / qpstep=4 / cplxblur=20.0 / qblur=0.5 / ip_ratio=1.40 / pb_ratio=1.30 / aq=1:0.80
Language : English
Audio #1
ID : 2
Format : DTS
Format/Info : Digital Theater Systems
Codec ID : A_DTS
Duration : 2h 12mn
Bit rate mode : Constant
Bit rate : 755 Kbps
Channel(s) : 6 channels
Channel positions : Front: L C R, Surround: L R, LFE
Sampling rate : 48.0 KHz
Resolution : 24 bits
Stream size : 714 MiB (7%)
Title : DTS 5.1ch 768 kbps [Дубляж]
Language : Russian
Audio #2
ID : 3
Format : AC-3
Format/Info : Audio Coding 3
Codec ID : A_AC3
Duration : 2h 12mn
Bit rate mode : Constant
Bit rate : 192 Kbps
Channel(s) : 2 channels
Channel positions : L R
Sampling rate : 48.0 KHz
Stream size : 182 MiB (2%)
Title : AC3 2.0ch 192 kbps [Многоголосый]
Language : Russian
Audio #3
ID : 4
Format : DTS
Format/Info : Digital Theater Systems
Codec ID : A_DTS
Duration : 2h 12mn
Bit rate mode : Constant
Bit rate : 1 510 Kbps
Channel(s) : 6 channels
Channel positions : Front: L C R, Surround: L R, LFE
Sampling rate : 48.0 KHz
Resolution : 24 bits
Stream size : 1.39 GiB (14%)
Title : DTS 5.1ch 1536 kbps [Одноголосый, Ю.Живов]
Language : Russian
Audio #4
ID : 5
Format : DTS
Format/Info : Digital Theater Systems
Codec ID : A_DTS
Duration : 2h 12mn
Bit rate mode : Constant
Bit rate : 1 510 Kbps
Channel(s) : 6 channels
Channel positions : Front: L C R, Surround: L R, LFE
Sampling rate : 48.0 KHz
Resolution : 24 bits
Stream size : 1.39 GiB (14%)
Title : DTS 5.1ch 1536 kbps [Оригинал]
Language : English
Audio #5
ID : 6
Format : AC-3
Format/Info : Audio Coding 3
Codec ID : A_AC3
Duration : 2h 12mn
Bit rate mode : Constant
Bit rate : 224 Kbps
Channel(s) : 2 channels
Channel positions : L R
Sampling rate : 48.0 KHz
Stream size : 212 MiB (2%)
Title : AC3 2.0ch 192 kbps [Комментарии]
Language : English
Text #1
ID : 7
Format : UTF-8
Codec ID : S_TEXT/UTF8
Codec ID/Info : UTF-8 Plain Text
Language : Russian
Text #2
ID : 8
Format : UTF-8
Codec ID : S_TEXT/UTF8
Codec ID/Info : UTF-8 Plain Text
Language : English
Text #3
ID : 9
Format : UTF-8
Codec ID : S_TEXT/UTF8
Codec ID/Info : UTF-8 Plain Text
Language : Vietnamese
Text #4
ID : 10
Format : UTF-8
Codec ID : S_TEXT/UTF8
Codec ID/Info : UTF-8 Plain Text
Language : Danish
Text #5
ID : 11
Format : UTF-8
Codec ID : S_TEXT/UTF8
Codec ID/Info : UTF-8 Plain Text
Language : Dutch
Text #6
ID : 12
Format : UTF-8
Codec ID : S_TEXT/UTF8
Codec ID/Info : UTF-8 Plain Text
Language : Estonian
Text #7
ID : 13
Format : UTF-8
Codec ID : S_TEXT/UTF8
Codec ID/Info : UTF-8 Plain Text
Language : Finnish
Text #8
ID : 14
Format : UTF-8
Codec ID : S_TEXT/UTF8
Codec ID/Info : UTF-8 Plain Text
Language : French
Text #9
ID : 15
Format : UTF-8
Codec ID : S_TEXT/UTF8
Codec ID/Info : UTF-8 Plain Text
Language : German
Text #10
ID : 16
Format : UTF-8
Codec ID : S_TEXT/UTF8
Codec ID/Info : UTF-8 Plain Text
Language : Hungarian
Text #11
ID : 17
Format : UTF-8
Codec ID : S_TEXT/UTF8
Codec ID/Info : UTF-8 Plain Text
Language : Italian
Text #12
ID : 18
Format : UTF-8
Codec ID : S_TEXT/UTF8
Codec ID/Info : UTF-8 Plain Text
Language : Norwegian
Text #13
ID : 19
Format : UTF-8
Codec ID : S_TEXT/UTF8
Codec ID/Info : UTF-8 Plain Text
Title : Brazilian
Language : Portuguese
Text #14
ID : 20
Format : UTF-8
Codec ID : S_TEXT/UTF8
Codec ID/Info : UTF-8 Plain Text
Language : Portuguese
Text #15
ID : 21
Format : UTF-8
Codec ID : S_TEXT/UTF8
Codec ID/Info : UTF-8 Plain Text
Language : Spanish
Text #16
ID : 22
Format : UTF-8
Codec ID : S_TEXT/UTF8
Codec ID/Info : UTF-8 Plain Text
Language : Spanish
Text #17
ID : 23
Format : UTF-8
Codec ID : S_TEXT/UTF8
Codec ID/Info : UTF-8 Plain Text
Language : Swedish
Text #18
ID : 24
Format : UTF-8
Codec ID : S_TEXT/UTF8
Codec ID/Info : UTF-8 Plain Text
Language : Turkish
Menu
00:00:00.000 : :1. Logo/Main title
00:01:55.115 : :2. The Musketeers
00:06:21.214 : :3. Attending The King
00:09:37.076 : :4. Louie Spies Christine
00:17:06.817 : :5. A Queen's Gratitude
00:18:47.168 : :6. "The King Is A Dog"
00:22:16.126 : :7. Of Riots & Rotten Food
00:28:07.895 : :8. Raoul's Demise
00:31:36.895 : :9. Royal Consolation
00:35:30.628 : :10. "Replace The King"
00:39:39.586 : :11. 3 Missing Musketeers
00:41:22.980 : :12. Delivering A Prisoner
00:46:56.522 : :13. Man In The Iron Mask
00:51:47.229 : :14. Porthos & Pathos
00:53:57.776 : :15. His Identity Revealed
00:58:18.704 : :16. News Of His 'Death'
01:01:28.894 : :17. 3 Weeks/Porthos Swings
01:04:56.017 : :18. Phillippe Decides
01:10:24.971 : :19. Training Phillippe
01:11:31.996 : :20. Raoul's Letter
01:14:56.158 : :21. Urgent Preparations
01:21:14.661 : :22. The Masquerade
01:24:04.706 : :23. "Judgement Day"
01:26:25.806 : :24. Phillipe Ascends
01:30:20.290 : :25. "You Killed Raoul!"
01:34:21.030 : :26. Flight...& Fight
01:36:59.272 : :27. Check Mate
01:39:46.939 : :28. "My Twin, My Blood"
01:43:03.052 : :29. Christine's Solution
01:45:40.876 : :30. Note From D'Artagnan
01:47:13.427 : :31. At The Bastille
01:49:44.286 : :32. All The King's men
01:53:20.168 : :33. D'Artagnan Reveals
01:55:27.879 : :34. "Magnificent Valor"
02:01:08.011 : :35. A True King
02:05:11.129 : :36. End Credits
-Скриншоты:

Время раздачи: 24/7 - круглосуточно

[Цитировать]



Показать сообщения:    

Текущее время: 21-Янв 01:13

Часовой пояс: UTC + 3


Вы не можете начинать темы
Вы не можете отвечать на сообщения
Вы не можете редактировать свои сообщения
Вы не можете удалять свои сообщения
Вы не можете голосовать в опросах
Вы не можете прикреплять файлы к сообщениям
Вы не можете скачивать файлы

!ВНИМАНИЕ!
Сайт не предоставляет электронные версии произведений, а занимается лишь коллекционированием и каталогизацией ссылок, присылаемых и публикуемых на форуме нашими читателями. Если вы являетесь правообладателем какого-либо представленного материала и не желаете, чтобы ссылка на него находилась в нашем каталоге, свяжитесь с нами, и мы незамедлительно удалим ее. Файлы для обмена на трекере предоставлены пользователями сайта, и администрация не несет ответственности за их содержание. Просьба не заливать файлы, защищенные авторскими правами, а также файлы нелегального содержания!