[ Сегодня идет свободное скачивание без начисления Download ]


Статистика раздачи
Нет
 
   
 
Top  
 
 
-Пакт / The Pact (2012) BDRemux- Русское название: Пакт
Оригинальное название: The Pact
Страна: США
Студия: Preferred Content
Год выпуска: 2012
Жанр: Ужасы, Триллер, Детектив-Описание фильма:
После смерти матери сестры Николь и Энни неохотно возвращаются в дом своего детства. Во время пребывания там, ночью, сестры чувствуют таинственное присутствие чего-то или кого-то: пугающий шум, движение объектов. Девушкам предстоит пережить несколько часов кошмара, чтобы узнать об ужасном прошлом их матери…-Режиссер: Николас МакКарти / Nicholas McCarthy
Актеры: Кейти Лотц, Кэтлин Роуз Перкинс, Хейли Хадсон, Сэмюэл Болл, Марк Стегер-Продолжительность: 01:28:59
Перевод: Профессиональный (многоголосый, закадровый) (R5) + Любительский (двухголосый, закадровый) (den904, DeadSno) + Одноголосый, закадровый (Xixidok)
ригинальная аудиодорожка: английский
Cубтитры: русские, английские, английские (SDH), немецкие- -Видеокодек: MPEG-4 AVC/H.264
Качество видео: BDRemux 1080p
Битрейт видео: ~29829 kbps
Размер кадра: 1920x1080p-Аудио 1: Русский AC3, 3/2 (L,C,R,l,r) + LFE ch, ~448.00 kbps avg | R5
Аудио 2: Русский AC3, 3/2 (L,C,R,l,r) + LFE ch, ~384.00 kbps avg | DVO
Аудио 3: Русский AC3, 2/0 (L,R), ~128.00 kbps avg | Xixidok
Аудио 4: Английский DTS-HD MA 5.1 / (48 kHz / 1906 kbps / 16-bit) (DTS Core: 5.1 / 48 kHz / 1509 kbps / 16-bit) | Original
Аудио 5: Английский DTS, 2/0 (L,R), ~384.00 kbps avg | Commentary
Чаптеры: Сохранены оригинальные чаптеры с Blu-Ray
-

MediaInfo:

General
Complete name : O:\The.Pact.2012.BDRemux.1080p.mkv
Format : Matroska
File size : 20.6 GiB
Duration : 1h 29mn
Overall bit rate : 33.0 Mbps
Encoded date : UTC 2013-03-30 15:21:09
Writing application : mkvmerge v5.2.1 ('A Far Off Place') built on Jan 2 2012 23:21:10
Writing library : libebml v1.2.3 + libmatroska v1.3.0
Video
ID : 1
Format : AVC
Format/Info : Advanced Video Codec
Format profile : High@L4.1
Format settings, CABAC : Yes
Format settings, ReFrames : 4 frames
Muxing mode : Container profile=Unknown@4.1
Codec ID : V_MPEG4/ISO/AVC
Duration : 1h 28mn
Width : 1 920 pixels
Height : 1 080 pixels
Display aspect ratio : 16:9
Frame rate : 23.976 fps
Resolution : 8 bits
Colorimetry : 4:2:0
Scan type : Progressive
Audio #1
ID : 2
Format : AC-3
Format/Info : Audio Coding 3
Codec ID : A_AC3
Duration : 1h 29mn
Bit rate mode : Constant
Bit rate : 448 Kbps
Channel(s) : 6 channels
Channel positions : Front: L C R, Surround: L R, LFE
Sampling rate : 48.0 KHz
Stream size : 285 MiB (1%)
Title : AC3 5.1 @ 448 kbps - MVO, R5
Language : Russian
Audio #2
ID : 3
Format : AC-3
Format/Info : Audio Coding 3
Codec ID : A_AC3
Duration : 1h 29mn
Bit rate mode : Constant
Bit rate : 384 Kbps
Channel(s) : 6 channels
Channel positions : Front: L C R, Surround: L R, LFE
Sampling rate : 48.0 KHz
Stream size : 245 MiB (1%)
Title : AC3 5.1 @ 384 kbps - DVO, den904, DeadSno
Language : Russian
Audio #3
ID : 4
Format : AC-3
Format/Info : Audio Coding 3
Codec ID : A_AC3
Duration : 1h 29mn
Bit rate mode : Constant
Bit rate : 128 Kbps
Channel(s) : 2 channels
Channel positions : L R
Sampling rate : 48.0 KHz
Stream size : 81.5 MiB (0%)
Title : AC3 2.0 @ 128 kbps - VO, Xixidok
Language : Russian
Audio #4
ID : 5
Format : DTS
Format/Info : Digital Theater Systems
Format profile : MA
Codec ID : A_DTS
Duration : 1h 29mn
Bit rate mode : Variable
Channel(s) : 6 channels
Channel positions : Front: L C R, Surround: L R, LFE
Sampling rate : 48.0 KHz
Resolution : 16 bits
Title : DTS-HD MA 5.1 Original @ 1929 kbps
Audio #5
ID : 6
Format : DTS
Format/Info : Digital Theater Systems
Codec ID : A_DTS
Duration : 1h 29mn
Bit rate mode : Constant
Bit rate : 384 Kbps
Channel(s) : 2 channels
Channel positions : L R
Sampling rate : 48.0 KHz
Resolution : 16 bits
Stream size : 245 MiB (1%)
Title : DTS 2.0 @ 384 kbps - Commentary
Text #1
ID : 7
Format : UTF-8
Codec ID : S_TEXT/UTF8
Codec ID/Info : UTF-8 Plain Text
Title : Full Rus
Language : Russian
Text #2
ID : 8
Format : UTF-8
Codec ID : S_TEXT/UTF8
Codec ID/Info : UTF-8 Plain Text
Title : Full Eng
Text #3
ID : 9
Format : UTF-8
Codec ID : S_TEXT/UTF8
Codec ID/Info : UTF-8 Plain Text
Title : Eng SDH
Text #4
ID : 10
Format : UTF-8
Codec ID : S_TEXT/UTF8
Codec ID/Info : UTF-8 Plain Text
Title : Full Ger
Language : German
Menu
00:00:00.000 : :Chapter 01
00:09:43.583 : :Chapter 02
00:14:56.228 : :Chapter 03
00:25:09.424 : :Chapter 04
00:32:13.264 : :Chapter 05
00:39:17.438 : :Chapter 06
00:47:19.837 : :Chapter 07
00:54:20.173 : :Chapter 08
01:01:38.778 : :Chapter 09
01:10:35.231 : :Chapter 10
01:14:57.618 : :Chapter 11
01:25:17.028 : :Chapter 12
-Скриншоты:
Время раздачи: 24/7 - круглосуточно

[Цитировать]



Показать сообщения:    

Текущее время: 08-Дек 05:13

Часовой пояс: UTC + 3


Вы не можете начинать темы
Вы не можете отвечать на сообщения
Вы не можете редактировать свои сообщения
Вы не можете удалять свои сообщения
Вы не можете голосовать в опросах
Вы не можете прикреплять файлы к сообщениям
Вы не можете скачивать файлы

!ВНИМАНИЕ!
Сайт не предоставляет электронные версии произведений, а занимается лишь коллекционированием и каталогизацией ссылок, присылаемых и публикуемых на форуме нашими читателями. Если вы являетесь правообладателем какого-либо представленного материала и не желаете, чтобы ссылка на него находилась в нашем каталоге, свяжитесь с нами, и мы незамедлительно удалим ее. Файлы для обмена на трекере предоставлены пользователями сайта, и администрация не несет ответственности за их содержание. Просьба не заливать файлы, защищенные авторскими правами, а также файлы нелегального содержания!