[ Сегодня идет свободное скачивание без начисления Download ]


Статистика раздачи
Нет
 
   
 
Top  
 
 
-Реальные парни / Stand Up Guys (2012) BDRip
«Жгут как в последний раз! Таких уже не делают»
- Русское название: Реальные парни
Оригинальное название: Stand Up Guys
Год выпуска: 2012
Производство: США / Lionsgate, Sidney Kimmel Entertainment, Lakeshore Entertainment
Жанр: Драма, Комедия, Криминал
Перевод: Дублированный [лицензия]
Субтитры: Отсутствуют
Дата мировой премьеры: 11 октября 2012
Дата российской премьеры: 31 января 2013, «Top Film Distribution»
Дата выхода DVD релиза: 5 марта 2013, «Lizard Cinema Trade»
Дата выхода Blu-Ray релиза: 5 марта 2013, «Lizard Cinema Trade»
Режиссер: Фишер Стивенс
Актеры: Аль Пачино, Кристофер Уокен, Алан Аркин, Джулианна Маргулис, Марк Марголис, Люси Панч, Эддисон Тимлин, Ванесса Ферлито, Кэтрин Уинник, Билли Барр
Описание фильма:
История строится вокруг двух уже немолодых преступников, один из которых получил задание убить близкого друга. Столь непростая ситуация требует времени на обдумывание, и киллеры решают вместе с приятелем изрядно побуянить (включая посещение борделя, угон машин и бегство от полиции), прежде чем будет принято окончательное решение.

Продолжительность: 01:34:58
Качество видео: BDRip
Видеокодек: XviD
Битрейт видео: ~1739 Кбит/сек
Размер кадра: 720 x 304
Аудиокодек: AC3 6ch.
Битрейт аудио: 448 Кбит/сек

MediaInfo:

Формат : AVI
Формат/Информация : Audio Video Interleave
Размер файла : 1,46 Гбайт
Продолжительность : 1 ч. 34 м.
Общий поток : 2197 Кбит/сек
Программа кодирования : VirtualDubMod 1.5.10.3 | www.virtualdub-fr.org || (build 2550/release)
Видео
Идентификатор : 0
Формат : MPEG-4 Visual
Профиль формата : Advanced Simple@L5
Параметр BVOP формата : 1
Параметр QPel формата : Нет
Параметр GMC формата : Без точки перехода
Параметр матрицы формата : Выборочная
Идентификатор кодека : XVID
Идентификатор кодека/Подсказка : XviD
Продолжительность : 1 ч. 34 м.
Битрейт : 1739 Кбит/сек
Ширина : 720 пикселей
Высота : 304 пикселя
Соотношение сторон : 2,35:1
Частота кадров : 23,976 кадра/сек
Цветовое пространство : YUV
Субдискретизация насыщенности : 4:2:0
Битовая глубина : 8 бит
Тип развёртки : Прогрессивная
Метод сжатия : С потерями
Бит/(Пиксели*Кадры) : 0.331
Размер потока : 1,15 Гбайт (79%)
Библиотека кодирования : XviD 1.2.1 (UTC 2008-12-04)
Аудио
Идентификатор : 1
Формат : AC-3
Формат/Информация : Audio Coding 3
Расширение режима : CM (complete main)
Идентификатор кодека : 2000
Продолжительность : 1 ч. 34 м.
Вид битрейта : Постоянный
Битрейт : 448 Кбит/сек
Каналы : 6 каналов
Расположение каналов : Front: L C R, Side: L R, LFE
Частота : 48,0 КГц
Битовая глубина : 16 бит
Метод сжатия : С потерями
Размер потока : 304 Мбайт (20%)
Выравнивание : Разделение по промежуткам
Продолжительность промежутка : 42 мс. (1,00 видеокадр)
Время предзагрузки промежутка : 500 мс.
Скриншоты:

[Цитировать]

Топик был перенесен из форума Новинки кинопроката в форум Драма
Henkok



Показать сообщения:    

Текущее время: 09-Дек 18:34

Часовой пояс: UTC + 3


Вы не можете начинать темы
Вы не можете отвечать на сообщения
Вы не можете редактировать свои сообщения
Вы не можете удалять свои сообщения
Вы не можете голосовать в опросах
Вы не можете прикреплять файлы к сообщениям
Вы не можете скачивать файлы

!ВНИМАНИЕ!
Сайт не предоставляет электронные версии произведений, а занимается лишь коллекционированием и каталогизацией ссылок, присылаемых и публикуемых на форуме нашими читателями. Если вы являетесь правообладателем какого-либо представленного материала и не желаете, чтобы ссылка на него находилась в нашем каталоге, свяжитесь с нами, и мы незамедлительно удалим ее. Файлы для обмена на трекере предоставлены пользователями сайта, и администрация не несет ответственности за их содержание. Просьба не заливать файлы, защищенные авторскими правами, а также файлы нелегального содержания!