[ Сегодня идет свободное скачивание без начисления Download ]


Статистика раздачи
Нет
 
   
 
Top  
 
 
Секреты Лос-Анжелеса / L.A. Confidential«Off the record, on the QT, and very hush-hush...»
Год выпуска: 1997
Страна: США
Производство: Warner Bros. Pictures
Жанр: триллер, драма, криминал, детектив
Режиссер: Кертис Хэнсон
В ролях: Кевин Спейси, Расселл Кроу, Гай Пирс, Джеймс Кромуэлл, Ким Бейсингер, Дэвид Стрэтэйрн, Дэнни ДеВито, Грэхэм Бекел, Пол Гилфойл, Рон Рифкин, Мэтт МакКой
Перевод: Профессиональный (многоголосый, закадровый)
Субтитры: Отсутствуют
Описание: Добро пожаловать в Лос-Анжелес, с его ярким солнцем, широкими манящими пляжами и процветающей организованной преступностью. Известно даже имя главы преступного мира - Микки Коэн. После ареста босса мафии кто-то одним за другим в мир иной отправляет его помощников, стрящихся занять освободившееся место. В стороне не остается и полиция Лос-Анжелеса: два бесстрашных полицейских, расследующих серию убийств, оказываются соперниками не только по работе, но и в постели проститутки из элитного борделя. По роману Д. Эллроя.

Качество: BDRip-AVC
Продолжительность: 02:17:53
Формат: MKV
Видео кодек: H.26x
Аудио кодек: AC3
Видео: 1024 x 424 (2.415), 23.976 fps, ~2139 kbps, 0.201 bit/pixel
Аудио: 48 kHz, AC3, 6 ch, ~384 kbps

Media Info

General
Unique ID                      : 230042564372500092996708672300420764086 (0xAD1096191FC1ED6986BF947FAF4D11B6)
Complete name                  : D:\фильмы\Secrety.Los.Andzhelesa.BDRip.AVC.mkv
Format                         : Matroska
Format version                 : Version 2
File size                      : 2.43 GiB
Duration                       : 2h 17mn
Overall bit rate               : 2 525 Kbps
Encoded date                   : UTC 2011-04-13 06:44:05
Writing application            : mkvmerge v3.3.0 ('Language') built on Mar 24 2010 14:59:24
Writing library                : libebml v0.8.0 + libmatroska v0.9.0
Video
ID                             : 1
Format                         : AVC
Format/Info                    : Advanced Video Codec
Format profile                 : High@L4.1
Format settings, CABAC         : Yes
Format settings, ReFrames      : 8 frames
Codec ID                       : V_MPEG4/ISO/AVC
Duration                       : 2h 17mn
Bit rate                       : 2 139 Kbps
Width                          : 1 024 pixels
Height                         : 424 pixels
Display aspect ratio           : 2.40:1
Frame rate                     : 23.976 fps
Color space                    : YUV
Chroma subsampling             : 4:2:0
Bit depth                      : 8 bits
Scan type                      : Progressive
Bits/(Pixel*Frame)             : 0.205
Stream size                    : 2.01 GiB (83%)
Writing library                : x264 core 92 r1510 33d382a
Encoding settings              : cabac=1 / ref=8 / deblock=1:-1:-1 / analyse=0x3:0x133 / me=umh / subme=10 / psy=1 / psy_rd=0.80:1.00 / mixed_ref=1 / me_range=64 / chroma_me=0 / trellis=2 / 8x8dct=1 / cqm=0 / deadzone=21,11 / fast_pskip=0 / chroma_qp_offset=1 / threads=3 / sliced_threads=0 / nr=0 / decimate=0 / interlaced=0 / constrained_intra=0 / bframes=7 / b_pyramid=2 / b_adapt=2 / b_bias=0 / direct=3 / wpredb=1 / wpredp=2 / keyint=250 / keyint_min=25 / scenecut=40 / intra_refresh=0 / rc_lookahead=40 / rc=2pass / mbtree=1 / bitrate=2139 / ratetol=1.0 / qcomp=0.60 / qpmin=10 / qpmax=51 / qpstep=4 / cplxblur=20.0 / qblur=0.5 / ip_ratio=1.40 / aq=2:1.00
Default                        : Yes
Forced                         : No
Audio
ID                             : 2
Format                         : AC-3
Format/Info                    : Audio Coding 3
Mode extension                 : CM (complete main)
Codec ID                       : A_AC3
Duration                       : 2h 17mn
Bit rate mode                  : Constant
Bit rate                       : 384 Kbps
Channel(s)                     : 6 channels
Channel positions              : Front: L C R, Side: L R, LFE
Sampling rate                  : 48.0 KHz
Bit depth                      : 16 bits
Compression mode               : Lossy
Stream size                    : 379 MiB (15%)
Default                        : Yes
Forced                         : No

Скриншоты

[Цитировать]



Показать сообщения:    

Текущее время: 09-Дек 00:59

Часовой пояс: UTC + 3


Вы не можете начинать темы
Вы не можете отвечать на сообщения
Вы не можете редактировать свои сообщения
Вы не можете удалять свои сообщения
Вы не можете голосовать в опросах
Вы не можете прикреплять файлы к сообщениям
Вы не можете скачивать файлы

!ВНИМАНИЕ!
Сайт не предоставляет электронные версии произведений, а занимается лишь коллекционированием и каталогизацией ссылок, присылаемых и публикуемых на форуме нашими читателями. Если вы являетесь правообладателем какого-либо представленного материала и не желаете, чтобы ссылка на него находилась в нашем каталоге, свяжитесь с нами, и мы незамедлительно удалим ее. Файлы для обмена на трекере предоставлены пользователями сайта, и администрация не несет ответственности за их содержание. Просьба не заливать файлы, защищенные авторскими правами, а также файлы нелегального содержания!