[ Сегодня идет свободное скачивание без начисления Download ]


Статистика раздачи
Нет
 
   
 
Top  
 
 
-Человеческий контракт / The Human Contract (2008) BDRip- Русское название: Человеческий контракт
Оригинальное название: The Human Contract
Страна: США
Производство: Overbrook Entertainment
Год выпуска: 2008
Жанр: Драма-Описание фильма:
Молодой успешный управляющий рекламной компанией — идеальный представитель современного мегаполиса. Вся его жизнь под контролем, все время распланировано с точностью до минуты, а чувства и эмоции — прочно спрятаны под маской любезности и деловым костюмом. Но, встреча с прекрасной девушкой меняет его представления о реальности. По мере развития их страсти: ощущения благополучия и стабильности рассеивается, а наружу вылезают страхи прошлой жизни.-Режиссер: Джада Пинкетт Смит
Актеры: Джейсон Кларк, Паз Вега, Идрис Эльба, Ти-Джей Тайн, Джоанна Кэссиди, Стивен Брэнд, Джада Пинкетт Смит, Тед Дэнсон, Энн Рэмси, Тава Смайли-Продолжительность: 01:47:35
Перевод: Профессиональный (двухголосый, закадровый) НТВ+
Субтитры: русские- -
Рейтинг R - Детям до 17 лет обязательно присутствие родителей-Видеокодек: MPEG-4 AVC/H.264
Битрейт видео: ~5 041 Kbps
Размер кадра: 1280x720p
Качество видео: BDRip 720p-Аудио 1: Русский 48 kHz, AC3 Dolby Digital, 2/0 (L,R) ch, ~192.00 kbps
Аудио 2: Английский 48 kHz, AC3 Dolby Digital, 3/2 (L,C,R,l,r) + LFE ch, ~640 kbps
-

MediaInfo:

General
Complete name : O:\The.Human.Contract.2008.720p.BluRay.x264.mkv
Format : Matroska
File size : 4.50 GiB
Duration : 1h 47mn
Overall bit rate : 5 992 Kbps
Encoded date : UTC 2011-02-20 15:56:07
Writing application : mkvmerge v3.0.0 ('Hang up your Hang-Ups') built on Jan 6 2010 22:49:38
Writing library : libebml v0.7.9 + libmatroska v0.8.1
Video
ID : 1
Format : AVC
Format/Info : Advanced Video Codec
Format profile : [email protected]
Format settings, CABAC : Yes
Format settings, ReFrames : 5 frames
Muxing mode : Container [email protected]
Codec ID : V_MPEG4/ISO/AVC
Duration : 1h 47mn
Bit rate : 5 041 Kbps
Nominal bit rate : 5 164 Kbps
Width : 1 280 pixels
Height : 720 pixels
Display aspect ratio : 16:9
Frame rate : 23.976 fps
Resolution : 8 bits
Colorimetry : 4:2:0
Scan type : Progressive
Bits/(Pixel*Frame) : 0.228
Stream size : 3.79 GiB (84%)
Writing library : x264 core 85 r1442 781d300
Encoding settings : cabac=1 / ref=5 / deblock=1:0:0 / analyse=0x3:0x133 / me=umh / subme=8 / psy=1 / psy_rd=1.00:0.00 / mixed_ref=1 / me_range=16 / chroma_me=1 / trellis=1 / 8x8dct=1 / cqm=0 / deadzone=21,11 / fast_pskip=0 / chroma_qp_offset=-2 / threads=12 / sliced_threads=0 / nr=0 / decimate=1 / mbaff=0 / constrained_intra=0 / bframes=3 / b_pyramid=0 / b_adapt=1 / b_bias=0 / direct=1 / wpredb=1 / wpredp=2 / keyint=250 / keyint_min=25 / scenecut=40 / intra_refresh=0 / rc_lookahead=40 / rc=2pass / mbtree=1 / bitrate=5164 / ratetol=1.0 / qcomp=0.60 / qpmin=10 / qpmax=51 / qpstep=4 / cplxblur=20.0 / qblur=0.5 / ip_ratio=1.40 / aq=1:1.00
Language : English
Audio #1
ID : 2
Format : AC-3
Format/Info : Audio Coding 3
Codec ID : A_AC3
Duration : 1h 47mn
Bit rate mode : Constant
Bit rate : 192 Kbps
Channel(s) : 2 channels
Channel positions : L R
Sampling rate : 48.0 KHz
Stream size : 148 MiB (3%)
Title : DVO(HTB)
Language : Russian
Audio #2
ID : 3
Format : AC-3
Format/Info : Audio Coding 3
Codec ID : A_AC3
Duration : 1h 47mn
Bit rate mode : Constant
Bit rate : 640 Kbps
Channel(s) : 6 channels
Channel positions : Front: L C R, Surround: L R, LFE
Sampling rate : 48.0 KHz
Stream size : 493 MiB (11%)
Language : English
Text
ID : 4
Format : UTF-8
Codec ID : S_TEXT/UTF8
Codec ID/Info : UTF-8 Plain Text
Language : Russian
-Скриншоты:

Время раздачи: 24/7 - круглосуточно

[Цитировать]



Показать сообщения:    

Текущее время: 04-Дек 11:15

Часовой пояс: UTC + 3


Вы не можете начинать темы
Вы не можете отвечать на сообщения
Вы не можете редактировать свои сообщения
Вы не можете удалять свои сообщения
Вы не можете голосовать в опросах
Вы не можете прикреплять файлы к сообщениям
Вы не можете скачивать файлы

!ВНИМАНИЕ!
Сайт не предоставляет электронные версии произведений, а занимается лишь коллекционированием и каталогизацией ссылок, присылаемых и публикуемых на форуме нашими читателями. Если вы являетесь правообладателем какого-либо представленного материала и не желаете, чтобы ссылка на него находилась в нашем каталоге, свяжитесь с нами, и мы незамедлительно удалим ее. Файлы для обмена на трекере предоставлены пользователями сайта, и администрация не несет ответственности за их содержание. Просьба не заливать файлы, защищенные авторскими правами, а также файлы нелегального содержания!