[ Сегодня идет свободное скачивание без начисления Download ]


Статистика раздачи
Нет
 
   
 
Top  
 
 
-Группа 7 / Grupo 7 (2012) BDRip-«Поиски правды приводят в тупик»- Русское название: Группа 7
Оригинальное название: Grupo 7
Год выпуска: 2012
Жанр: Боевик, Триллер, Драма
Описание фильма:
1987 год, Севилья. Группа 7 специальный отряд полиции с особо важным заданием: очистить город от проституции и наркотрафика, положив конец разъедающей все силе, которая захватила улицы. Во главе отряда стоят Анхель, молодой офицер, стремящийся стать детективом, и Рафаэль, жестокий и надменный, но очень эффективный опытный коп. Основной метод действия группы 7 — в борьбе с преступностью самим обходить закон с помощью насилия, угроз, полуправды и лжи. Для них все средства хороши. По мере того как они продвигаются в своей миссии вперед, два офицера становятся на разные пути. Анхель оказывается увлеченным своими амбициями, а Рафаэль неожиданно для самого себя привязывается и влюбляется в молодую красавицу Лючию, которую перед этим подбирает на улице.
Режиссер: Альберто Родригес
Актеры: Антонио де ла Торре, Марио Касас, Хоакин Нуньес, Инма Куэста, Эстефания Де Лос Сантос, Хулиан Вильягран, Альфонсо Санчез, Карлос Олайя, Лусия Герерро
Продолжительность: 01:35:15
Перевод: Многоголосый закадровый [Лицензия], Авторский одноголосый закадровый
Язык субтитров: Русский, Английский, Испанский (SDH)
Вид субтитров: Вшитые отключаемые
-Видеокодек: MPEG-4 AVC/H.264
Битрейт видео: ~10000 Кбит/сек
Размер кадра: 1920 x 812
Качество видео: BDRip 1080p
Аудио 1: Русский, DTS 5.1, 1510 kbps, 48 kHz (MVO)
Аудио 2: Русский, AC3 5.1, 640 kbps, 48 kHz (AVO, А.Кедров)
Аудио 3: Испанский, DTS 5.1, 1509 kbps, 48 kHz (Оригинал)-Сэмпл: Ссылка-

MediaInfo:

Общее
Уникальный идентификатор : 190502301046786972961293188911768928238 (0x8F51689A68428895A38BCDE6F1F5FFEE)
Полное имя : D:\Films\Grupo.7.2012.1080p.BDRip.mkv
Формат : Matroska
Версия формата : Version 2
Размер файла : 9,09 Гбайт
Продолжительность : 1 ч. 35 м.
Общий поток : 13,7 Мбит/сек
Дата кодирования : UTC 2013-04-06 15:03:52
Программа кодирования : mkvmerge v5.2.0 ('I can't explain') built on Dec 18 2011 18:12:03
Библиотека кодирования : libebml v1.2.3 + libmatroska v1.3.0
Видео
Идентификатор : 1
Формат : AVC
Формат/Информация : Advanced Video Codec
Профиль формата : High@L4.1
Параметр CABAC формата : Да
Параметр ReFrames формата : 5 кадров
Идентификатор кодека : V_MPEG4/ISO/AVC
Продолжительность : 1 ч. 35 м.
Битрейт : 10000 Кбит/сек
Ширина : 1920 пикселей
Высота : 812 пикселей
Соотношение сторон : 2,35:1
Режим частоты кадров : Постоянный
Частота кадров : 24,000 кадра/сек
Цветовое пространство : YUV
Субдискретизация насыщенности : 4:2:0
Битовая глубина : 8 бит
Тип развёртки : Прогрессивная
Бит/(Пиксели*Кадры) : 0.267
Размер потока : 6,47 Гбайт (71%)
Библиотека кодирования : x264 core 125 r2208 d9d2288
Настройки программы : cabac=1 / ref=5 / deblock=1:-3:-3 / analyse=0x3:0x133 / me=umh / subme=10 / psy=1 / psy_rd=1.00:0.00 / mixed_ref=1 / me_range=48 / chroma_me=1 / trellis=2 / 8x8dct=1 / cqm=0 / deadzone=21,11 / fast_pskip=1 / chroma_qp_offset=-2 / threads=12 / lookahead_threads=2 / sliced_threads=0 / nr=0 / decimate=0 / interlaced=0 / bluray_compat=0 / constrained_intra=0 / bframes=7 / b_pyramid=2 / b_adapt=2 / b_bias=0 / direct=3 / weightb=1 / open_gop=0 / weightp=2 / keyint=250 / keyint_min=24 / scenecut=40 / intra_refresh=0 / rc_lookahead=80 / rc=2pass / mbtree=1 / bitrate=10000 / ratetol=1.0 / qcomp=0.60 / qpmin=0 / qpmax=69 / qpstep=4 / cplxblur=20.0 / qblur=0.5 / vbv_maxrate=30000 / vbv_bufsize=30000 / nal_hrd=none / ip_ratio=1.50 / aq=1:1.00
Язык : English
Default : Да
Forced : Нет
Аудио #1
Идентификатор : 2
Формат : DTS
Формат/Информация : Digital Theater Systems
Режим : 16
Параметр Endianness формата : Big
Идентификатор кодека : A_DTS
Продолжительность : 1 ч. 35 м.
Вид битрейта : Постоянный
Битрейт : 1510 Кбит/сек
Каналы : 6 каналов
Расположение каналов : Front: L C R, Side: L R, LFE
Частота : 48,0 КГц
Битовая глубина : 16 бит
Метод сжатия : С потерями
Размер потока : 1,00 Гбайт (11%)
Заголовок : MVO R5
Язык : Russian
Default : Да
Forced : Нет
Аудио #2
Идентификатор : 3
Формат : AC-3
Формат/Информация : Audio Coding 3
Расширение режима : CM (complete main)
Параметр Endianness формата : Big
Идентификатор кодека : A_AC3
Продолжительность : 1 ч. 35 м.
Вид битрейта : Постоянный
Битрейт : 640 Кбит/сек
Каналы : 6 каналов
Расположение каналов : Front: L C R, Side: L R, LFE
Частота : 48,0 КГц
Битовая глубина : 16 бит
Метод сжатия : С потерями
Размер потока : 436 Мбайт (5%)
Заголовок : AVO А.Кедров
Язык : Russian
Default : Нет
Forced : Нет
Аудио #3
Идентификатор : 4
Формат : DTS
Формат/Информация : Digital Theater Systems
Режим : 16
Параметр Endianness формата : Big
Идентификатор кодека : A_DTS
Продолжительность : 1 ч. 35 м.
Вид битрейта : Постоянный
Битрейт : 1509 Кбит/сек
Каналы : 6 каналов
Расположение каналов : Front: L C R, Side: L R, LFE
Частота : 48,0 КГц
Битовая глубина : 16 бит
Метод сжатия : С потерями
Размер потока : 1,00 Гбайт (11%)
Язык : Spanish
Default : Нет
Forced : Нет
Текст #1
Идентификатор : 5
Формат : UTF-8
Идентификатор кодека : S_TEXT/UTF8
Идентификатор кодека/Информация : UTF-8 Plain Text
Язык : Russian
Default : Нет
Forced : Нет
Текст #2
Идентификатор : 6
Формат : UTF-8
Идентификатор кодека : S_TEXT/UTF8
Идентификатор кодека/Информация : UTF-8 Plain Text
Язык : English
Default : Нет
Forced : Нет
Текст #3
Идентификатор : 7
Формат : UTF-8
Идентификатор кодека : S_TEXT/UTF8
Идентификатор кодека/Информация : UTF-8 Plain Text
Заголовок : SDH
Язык : Spanish
Default : Нет
Forced : Нет
-Скриншоты:
-Время раздачи: С 8:00 до 22:00 до 5 скачавших

[Цитировать]



Показать сообщения:    

Текущее время: 08-Дек 08:59

Часовой пояс: UTC + 3


Вы не можете начинать темы
Вы не можете отвечать на сообщения
Вы не можете редактировать свои сообщения
Вы не можете удалять свои сообщения
Вы не можете голосовать в опросах
Вы не можете прикреплять файлы к сообщениям
Вы не можете скачивать файлы

!ВНИМАНИЕ!
Сайт не предоставляет электронные версии произведений, а занимается лишь коллекционированием и каталогизацией ссылок, присылаемых и публикуемых на форуме нашими читателями. Если вы являетесь правообладателем какого-либо представленного материала и не желаете, чтобы ссылка на него находилась в нашем каталоге, свяжитесь с нами, и мы незамедлительно удалим ее. Файлы для обмена на трекере предоставлены пользователями сайта, и администрация не несет ответственности за их содержание. Просьба не заливать файлы, защищенные авторскими правами, а также файлы нелегального содержания!