[ Сегодня идет свободное скачивание без начисления Download ]


Статистика раздачи
Нет
 
   
 
Top  
 
 
Человек-волк (Режиссерская версия) / The Wolfman (Unrated Directors Cut)"Бойся полной Луны"
Год выпуска: 2010
Страна: США, Великобритания
Производство: Relativity Media, Stuber Productions, Universal Pictures
Жанр: Ужасы, триллер, драма
Режиссер: Джо Джонстон
В ролях: Бенисио Дель Торо, Энтони Хопкинс, Эмили Блант, Хьюго Уивинг, Саймон Мерреллс, Джемма Уилан, Марио Марин-Борке,с Аса Баттерфилд, Кристина Контес, Арт Малик
Перевод: Профессиональный (полное дублирование) [с лицензии R5] + Оригинал
Субтитры: Русские, английские, румынские, французские, испанские
Описание: Эта история разворачивается в Великобритании. Герой возвращается на Родину из Америки для того, чтобы найти без вести пропавшего брата. До него доходят слухи о том, что в предмеcтьях города обитает страшное существо, которое разрывает на части жителей окрестных деревень. Дело расследует полиция Скотланд-Ярда, вскоре их заинтересовывает джентльмен, приехавший на поиски брата.

Релиз от:
Качество: BDRip 720p
Продолжительность: 01:59:05
Формат: MKV
Видео кодек: AVC High@L4.1
Аудио кодек: AC3
Видео: 1280 x 694 (1.844), 23.976 fps, ~6352 kbps, 0.291 bit / pixel
Аудио: 48 kHz, AC3, 6 ch, ~384 kbps avg [Дубляж]
Аудио #2: 48 kHz, DTS, 6 ch, ~1510 kbps avg [Оригинал]
Главы: Нет

Media Info

General
Unique ID                      : 186195493115116451540033660552029394651 (0x8C13F293F32712CE9C8CAA08B577D6DB)
Complete name                  : D:\фильмы\Chelovek.volk.2010.720p.BDRip.mkv
Format                         : Matroska
Format version                 : Version 2
File size                      : 6.86 GiB
Duration                       : 1h 59mn
Overall bit rate               : 8 249 Kbps
Movie name                     : Wolfman (2010) - Release for HDCLUB
Encoded date                   : UTC 2010-06-11 20:36:59
Writing application            : mkvmerge v3.3.0 ('Language') built on Mar 24 2010 14:59:24
Writing library                : libebml v0.8.0 + libmatroska v0.9.0
Attachment                     : Yes / Yes / Yes
Video
ID                             : 1
Format                         : AVC
Format/Info                    : Advanced Video Codec
Format profile                 : High@L4.1
Format settings, CABAC         : Yes
Format settings, ReFrames      : 7 frames
Codec ID                       : V_MPEG4/ISO/AVC
Duration                       : 1h 59mn
Bit rate                       : 6 352 Kbps
Width                          : 1 280 pixels
Height                         : 694 pixels
Display aspect ratio           : 16:9
Frame rate                     : 23.976 fps
Color space                    : YUV
Chroma subsampling             : 4:2:0
Bit depth                      : 8 bits
Scan type                      : Progressive
Bits/(Pixel*Frame)             : 0.298
Stream size                    : 5.15 GiB (75%)
Title                          : Release for HDCLUB
Writing library                : x264 core 84 r1400M 20fa784
Encoding settings              : cabac=1 / ref=8 / deblock=1:-3:-3 / analyse=0x3:0x133 / me=esa / subme=10 / psy=1 / psy_rd=1.3:0.0 / mixed_ref=1 / me_range=24 / chroma_me=1 / trellis=2 / 8x8dct=1 / cqm=0 / deadzone=21,11 / fast_pskip=1 / chroma_qp_offset=-2 / threads=6 / sliced_threads=0 / nr=0 / decimate=0 / mbaff=0 / constrained_intra=0 / bframes=5 / b_pyramid=1 / b_adapt=2 / b_bias=0 / direct=3 / wpredb=1 / wpredp=2 / keyint=250 / keyint_min=25 / scenecut=40 / intra_refresh=0 / rc=2pass / mbtree=0 / bitrate=6352 / ratetol=1.0 / qcomp=0.60 / qpmin=10 / qpmax=51 / qpstep=4 / cplxblur=20.0 / qblur=0.5 / ip_ratio=1.40 / pb_ratio=1.30 / aq=1:0.90 / pulldown=0 / nal_hrd=0
Language                       : English
Default                        : No
Forced                         : No
Audio #1
ID                             : 2
Format                         : AC-3
Format/Info                    : Audio Coding 3
Mode extension                 : CM (complete main)
Codec ID                       : A_AC3
Duration                       : 1h 59mn
Bit rate mode                  : Constant
Bit rate                       : 384 Kbps
Channel(s)                     : 6 channels
Channel positions              : Front: L C R, Side: L R, LFE
Sampling rate                  : 48.0 KHz
Bit depth                      : 16 bits
Compression mode               : Lossy
Stream size                    : 327 MiB (5%)
Title                          : AC3 5.1 @ 384 kbps - Дублированный
Language                       : Russian
Default                        : Yes
Forced                         : No
Audio #2
ID                             : 3
Format                         : DTS
Format/Info                    : Digital Theater Systems
Codec ID                       : A_DTS
Duration                       : 1h 59mn
Bit rate mode                  : Constant
Bit rate                       : 1 510 Kbps
Channel(s)                     : 6 channels
Channel positions              : Front: L C R, Side: L R, LFE
Sampling rate                  : 48.0 KHz
Bit depth                      : 24 bits
Compression mode               : Lossy
Stream size                    : 1.26 GiB (18%)
Title                          : DTS 5.1 @ 1536 kbps
Language                       : English
Default                        : No
Forced                         : No
Text #1
ID                             : 4
Format                         : UTF-8
Codec ID                       : S_TEXT/UTF8
Codec ID/Info                  : UTF-8 Plain Text
Title                          : Forced
Language                       : Russian
Default                        : No
Forced                         : Yes
Text #2
ID                             : 5
Format                         : UTF-8
Codec ID                       : S_TEXT/UTF8
Codec ID/Info                  : UTF-8 Plain Text
Language                       : Russian
Default                        : No
Forced                         : No
Text #3
ID                             : 6
Format                         : UTF-8
Codec ID                       : S_TEXT/UTF8
Codec ID/Info                  : UTF-8 Plain Text
Title                          : SDH
Language                       : Russian
Default                        : No
Forced                         : No
Text #4
ID                             : 7
Format                         : UTF-8
Codec ID                       : S_TEXT/UTF8
Codec ID/Info                  : UTF-8 Plain Text
Language                       : Ukrainian
Default                        : No
Forced                         : No
Text #5
ID                             : 8
Format                         : ASS
Codec ID                       : S_TEXT/ASS
Codec ID/Info                  : Advanced Sub Station Alpha
Compression mode               : Lossless
Language                       : English
Default                        : No
Forced                         : No
Text #6
ID                             : 9
Format                         : ASS
Codec ID                       : S_TEXT/ASS
Codec ID/Info                  : Advanced Sub Station Alpha
Compression mode               : Lossless
Language                       : Romanian
Default                        : No
Forced                         : No
Text #7
ID                             : 10
Format                         : ASS
Codec ID                       : S_TEXT/ASS
Codec ID/Info                  : Advanced Sub Station Alpha
Compression mode               : Lossless
Language                       : French
Default                        : No
Forced                         : No
Text #8
ID                             : 11
Format                         : ASS
Codec ID                       : S_TEXT/ASS
Codec ID/Info                  : Advanced Sub Station Alpha
Compression mode               : Lossless
Language                       : Spanish
Default                        : No
Forced                         : No

Скриншоты

[Цитировать]



Показать сообщения:    

Текущее время: 08-Дек 19:12

Часовой пояс: UTC + 3


Вы не можете начинать темы
Вы не можете отвечать на сообщения
Вы не можете редактировать свои сообщения
Вы не можете удалять свои сообщения
Вы не можете голосовать в опросах
Вы не можете прикреплять файлы к сообщениям
Вы не можете скачивать файлы

!ВНИМАНИЕ!
Сайт не предоставляет электронные версии произведений, а занимается лишь коллекционированием и каталогизацией ссылок, присылаемых и публикуемых на форуме нашими читателями. Если вы являетесь правообладателем какого-либо представленного материала и не желаете, чтобы ссылка на него находилась в нашем каталоге, свяжитесь с нами, и мы незамедлительно удалим ее. Файлы для обмена на трекере предоставлены пользователями сайта, и администрация не несет ответственности за их содержание. Просьба не заливать файлы, защищенные авторскими правами, а также файлы нелегального содержания!