[ Сегодня идет свободное скачивание без начисления Download ]


Статистика раздачи
Нет
 
   
 
Top  
 
 
-Восходящее солнце / Rising Sun (1993) BDRip- Русское название: Восходящее солнце
Оригинальное название: Rising Sun
Год выпуска: 1993
Производство: США / 20th Century Fox Film Corporation, Walrus & Associates
Жанр: Триллер, Драма, Криминал, Боевик, Детектив-Описание фильма:
Лос-Анджелес. В небоскребе японской корпорации "Накамото", имеющей широкие деловые контакты с американской электронной компанией "Микрокон", идет деловой прием. В это время в главном конференц-зале обнаружен труп молодой женщины. Лейтенант полиции Том Грэм, приехавший на место преступления, не жалует японцев, отсюда и сложности в общении. К расследованию подключаются полицейский Веб Смит и Джо Коннер, специалист по японской культуре. Проверив систему безопасности, они обнаруживают: кассета, на которой мог быть виден убийца, подменена.-Режиссер: Филип Кауфман
Актеры: Шон Коннери, Уэсли Снайпс, Харви Кейтель, Кэри-Хироюки Тагава, Кевин Андерсон, Мако, Рэй Уайз, Стэн Эги, Стэн Шоу, Тиа Каррере, Стив Бушеми, Татьяна Патиц, Питер Кромби, Сэм Ллойд, Александра Пауэрс, Дэниэл фон Барген, Лоурен Робинсон, Эми Хилл, Том Дальгрен, Клайд Кусацу, Майкл Чэпмен, Джои Миясима, Тамара Тюни, Тони Гэниос, Джеймс Оливер Баллок, Майкл Кинсли, Элинор Клифт, Кларенс Пейдж, Пэт Чоут, Стивен С. Клемонс, Дэн Батлер, Тоширо Обата, Тайлин Джон, Шелли Мишель, Мишель Руис, Патриция Аямэ Томсон-Продолжительность: 02:09:25
Перевод: Многоголосый закадровый / Одноголосый закадровый, авторский
Язык субтитров: Русские, украинские, английские
Вид субтитров: Вшитые [отключаемые]- -Дата мировой премьеры: 30 июля 1993
Дата выхода DVD релиза: 12 марта 2009, «Двадцатый Век Фокс СНГ»-Видеокодек: MPEG-4 AVC/H.264
Битрейт видео: ~7239 Кбит/с
Размер кадра: 1280x692
Качество видео: BDRip 720p
Аудио#1: Русский: (DTS, 6 ch, 755 Кбит/с) / Профессиональный (многоголосый закадровый)
Аудио#2: Русский: (DTS, 6 ch, 1510 Кбит/с) / Авторский (одноголосый) (Гаврилов)
Аудио#3: Русский: (DTS, 6 ch, 1510 Кбит/с) / Авторский (одноголосый) (Живов)
Аудио#4: Английский: (DTS, 6 ch, 1510 Кбит/с)

MediaInfo

Общее
Уникальный идентификатор : 215261920723373619092947189044727185097 (0xA1F1F01A436578F29C94192333EAFEC9)
Полное имя : D:\Торрент раздача\Rising.Sun.1993.720p.BluRay.3xRus.Eng.HDCLUB.mkv
Формат : Matroska
Версия формата : Version 2
Размер файла : 11,3 Гбайт
Продолжительность : 2 ч. 9 м.
Общий поток : 12,5 Мбит/сек
Название фильма : Rising Sun (1993)
Дата кодирования : UTC 2011-01-10 19:01:14
Программа кодирования : mkvmerge v4.4.0 ('Die Wiederkehr') сборка от Oct 31 2010 21:52:48
Библиотека кодирования : libebml v1.0.0 + libmatroska v1.0.0
Видео
Идентификатор : 1
Формат : AVC
Формат/Информация : Advanced Video Codec
Профиль формата : High@L4.1
Параметр CABAC формата : Да
Параметр ReFrames формата : 7 кадров
Идентификатор кодека : V_MPEG4/ISO/AVC
Продолжительность : 2 ч. 9 м.
Битрейт : 7239 Кбит/сек
Ширина : 1280 пикселей
Высота : 692 пикселя
Соотношение сторон : 1,85:1
Режим частоты кадров : Постоянный
Частота кадров : 23,976 кадра/сек
Цветовое пространство : YUV
Субдискретизация насыщенности : 4:2:0
Битовая глубина : 8 бит
Тип развёртки : Прогрессивная
Бит/(Пиксели*Кадры) : 0.341
Размер потока : 6,32 Гбайт (56%)
Заголовок : Rising Sun (1993) - Release for HDCLUB
Библиотека кодирования : x264 core 112 r1834 a51816a
Настройки программы : cabac=1 / ref=7 / deblock=1:-3:-3 / analyse=0x3:0x113 / me=umh / subme=9 / psy=1 / psy_rd=1.00:0.00 / mixed_ref=1 / me_range=32 / chroma_me=1 / trellis=2 / 8x8dct=1 / cqm=0 / deadzone=21,11 / fast_pskip=0 / chroma_qp_offset=-2 / threads=6 / sliced_threads=0 / nr=0 / decimate=1 / interlaced=0 / constrained_intra=0 / bframes=8 / b_pyramid=2 / b_adapt=2 / b_bias=0 / direct=3 / weightb=1 / open_gop=0 / weightp=2 / keyint=250 / keyint_min=23 / scenecut=40 / intra_refresh=0 / rc_lookahead=60 / rc=2pass / mbtree=0 / bitrate=7239 / ratetol=1.0 / qcomp=0.60 / qpmin=10 / qpmax=51 / qpstep=4 / cplxblur=20.0 / qblur=0.5 / vbv_maxrate=50000 / vbv_bufsize=62500 / ip_ratio=1.40 / pb_ratio=1.30 / aq=1:0.80 / nal_hrd=none
Язык : English
Default : Да
Forced : Нет
Аудио #1
Идентификатор : 2
Формат : DTS
Формат/Информация : Digital Theater Systems
Режим : 16
Параметр Endianness формата : Big
Идентификатор кодека : A_DTS
Продолжительность : 2 ч. 9 м.
Вид битрейта : Постоянный
Битрейт : 768 Кбит/сек
Каналы : 6 каналов
Расположение каналов : Front: L C R, Side: L R, LFE
Частота : 48,0 КГц
Битовая глубина : 16 бит
Метод сжатия : С потерями
Размер потока : 711 Мбайт (6%)
Заголовок : DTS 5.1ch 755 kbps - Многоголосый
Язык : Russian
Default : Да
Forced : Нет
Аудио #2
Идентификатор : 3
Формат : DTS
Формат/Информация : Digital Theater Systems
Режим : 16
Параметр Endianness формата : Big
Идентификатор кодека : A_DTS
Продолжительность : 2 ч. 9 м.
Вид битрейта : Постоянный
Битрейт : 1509 Кбит/сек
Каналы : 6 каналов
Расположение каналов : Front: L C R, Side: L R, LFE
Частота : 48,0 КГц
Битовая глубина : 24 бит
Метод сжатия : С потерями
Размер потока : 1,36 Гбайт (12%)
Заголовок : DTS 5.1ch 1510 kbps - Одноголосый, А.Гаврилов
Язык : Russian
Default : Нет
Forced : Нет
Аудио #3
Идентификатор : 4
Формат : DTS
Формат/Информация : Digital Theater Systems
Режим : 16
Параметр Endianness формата : Big
Идентификатор кодека : A_DTS
Продолжительность : 2 ч. 9 м.
Вид битрейта : Постоянный
Битрейт : 1509 Кбит/сек
Каналы : 6 каналов
Расположение каналов : Front: L C R, Side: L R, LFE
Частота : 48,0 КГц
Битовая глубина : 24 бит
Метод сжатия : С потерями
Размер потока : 1,36 Гбайт (12%)
Заголовок : DTS 5.1ch 1510 kbps - Одноголосый, Ю.Живов
Язык : Russian
Default : Нет
Forced : Нет
Аудио #4
Идентификатор : 5
Формат : DTS
Формат/Информация : Digital Theater Systems
Режим : 16
Параметр Endianness формата : Big
Идентификатор кодека : A_DTS
Продолжительность : 2 ч. 9 м.
Вид битрейта : Постоянный
Битрейт : 1509 Кбит/сек
Каналы : 6 каналов
Расположение каналов : Front: L C R, Side: L R, LFE
Частота : 48,0 КГц
Битовая глубина : 24 бит
Метод сжатия : С потерями
Размер потока : 1,36 Гбайт (12%)
Заголовок : DTS 5.1ch 1510 kbps
Язык : English
Default : Нет
Forced : Нет
Текст #1
Идентификатор : 6
Формат : UTF-8
Идентификатор кодека : S_TEXT/UTF8
Идентификатор кодека/Информация : UTF-8 Plain Text
Язык : Russian
Default : Нет
Forced : Нет
Текст #2
Идентификатор : 7
Формат : UTF-8
Идентификатор кодека : S_TEXT/UTF8
Идентификатор кодека/Информация : UTF-8 Plain Text
Заголовок : Forced
Язык : Russian
Default : Да
Forced : Нет
Текст #3
Идентификатор : 8
Формат : UTF-8
Идентификатор кодека : S_TEXT/UTF8
Идентификатор кодека/Информация : UTF-8 Plain Text
Язык : Ukrainian
Default : Нет
Forced : Нет
Текст #4
Идентификатор : 9
Формат : UTF-8
Идентификатор кодека : S_TEXT/UTF8
Идентификатор кодека/Информация : UTF-8 Plain Text
Язык : English
Default : Нет
Forced : Нет
Меню
00:00:00.000 : en:1. Main Title: Bored to Death
00:03:38.552 : en:2. Final Proposal
00:07:35.455 : en:3. Rolling Out the Red Carpet
00:11:46.539 : en:4. Web Smith: Special Services Liaison
00:14:37.460 : en:5. Picking Up Connor
00:20:42.658 : en:6. Scene of the Crime
00:28:36.923 : en:7. Questioning Security
00:35:45.810 : en:8. The Love Shack
00:44:24.662 : en:9. Crashing Eddie's Party
00:49:17.329 : en:10. In the War Zone; The Missing Disc
00:55:10.807 : en:11. Just Like Old Times
01:00:53.358 : en:12. Wake-Up Call
01:06:52.550 : en:13. Fishy Reflections
01:12:10.326 : en:14. Playing Catch-Up
01:15:29.733 : en:15. Eluding Retaliation
01:19:04.656 : en:16. Jingo's Story
01:22:35.534 : en:17. Exposure
01:25:43.388 : en:18. A Closed-and-Open Case
01:31:25.688 : en:19. On the Take
01:35:29.057 : en:20. Still Alive
01:40:07.793 : en:21. Caught in the Middle
01:46:27.297 : en:22. Viewing the Original Disc
01:50:27.955 : en:23. Unprotected by Technology
01:52:14.353 : en:24. The World Premiere
02:00:03.822 : en:25. A Perfect Day for Golf
02:05:44.078 : en:26. End Titles
Скриншоты:
Время раздачи: 24/7

[Цитировать]



Показать сообщения:    

Текущее время: 30-Май 19:04

Часовой пояс: UTC + 6


Вы не можете начинать темы
Вы не можете отвечать на сообщения
Вы не можете редактировать свои сообщения
Вы не можете удалять свои сообщения
Вы не можете голосовать в опросах
Вы не можете прикреплять файлы к сообщениям
Вы не можете скачивать файлы

!ВНИМАНИЕ!
Сайт не предоставляет электронные версии произведений, а занимается лишь коллекционированием и каталогизацией ссылок, присылаемых и публикуемых на форуме нашими читателями. Если вы являетесь правообладателем какого-либо представленного материала и не желаете, чтобы ссылка на него находилась в нашем каталоге, свяжитесь с нами, и мы незамедлительно удалим ее. Файлы для обмена на трекере предоставлены пользователями сайта, и администрация не несет ответственности за их содержание. Просьба не заливать файлы, защищенные авторскими правами, а также файлы нелегального содержания!