[ Сегодня идет свободное скачивание без начисления Download ]


Статистика раздачи
Нет
 
   
 
Top  
 
 
Красавчик Джонни / Johnny Handsome«They changed his looks, his life and his future... but they couldn't change his past.»
Год выпуска: 1989
Страна: США
Производство: Carolco Pictures Inc.
Жанр: Триллер, драма, криминал
Режиссер: Уолтер Хилл
В ролях: Микки Рурк, Эллен Баркин, Элизабет МакГоверн, Морган Фриман, Форест Уитакер, Лэнс Хенриксен
Перевод:Профессиональный (многоголосый, закадровый) + 2 x Авторский одноголосый + Оригинал
Субтитры: Русские, Английские (UTF-8)
Описание: Джон Седли родился с обезображенным лицом, и это вкупе с тяжелым детством предопределило его судьбу — он стал преступником. Во время вооруженного ограбления он и его друг Майки оказались обманутым партнерами. Майки был убит, а Джони пошел в тюрьму, но никого не заложил, рассчитывая выйти на свободу и отомстить.
В тюрьме он при помощи гуманного чернокожего хирурга получает новое, очень даже симпатичное и обаятельное лицо Микки Рурка, и со временем его отпускают по амнистии. Он начинает опасную игру, чтобы поквитаться с предателями.


Качество: BDRip 720p
Продолжительность: 01:33:37
Формат: MKV
Видео кодек: AVC High@L4.1
Аудио кодек: AC3
Видео: 1280 x 696 (16:9), 23.976 fps, ~ 5175 kbps, 0.242 bit / pixel
Аудио: Русский: 48 kHz, AC3, 6 ch, ~448 kbps [Многоголосый (закадровый)]
Аудио #2: Русский: 48 kHz, AC3, 2 ch, ~192 kbps [Авторский одноголосый (Гаврилов)]
Аудио #3: Русский: 48 kHz, AC3, 2 ch, ~192 kbps [Авторский одноголосый (Горчаков)]
Аудио #4: Английский: 48 kHz, DTS, 6 ch, ~1510 kbps [Оригинал]
Главы: Нет

Media Info

General
Complete name : D:фильмыKrasavchik.Dzhonni.1989.BDRip.720p.mkv
Format : Matroska
File size : 4.91 GiB
Duration : 1h 33mn
Overall bit rate : 7 514 Kbps
Movie name : --SCHUMAHER--
Encoded date : UTC 2010-08-05 20:33:12
Writing application : mkvmerge v2.1.0 ('Another Place To Fall') built on Aug 19 2007 13:40:07
Writing library : libebml v0.7.7 + libmatroska v0.8.1
Video
ID : 1
Format : AVC
Format/Info : Advanced Video Codec
Format profile : High@L4.1
Format settings, CABAC : Yes
Format settings, ReFrames : 5 frames
Format settings, GOP : M=4, N=32
Muxing mode : Container profile=Unknown@4.1
Codec ID : V_MPEG4/ISO/AVC
Duration : 1h 33mn
Bit rate : 5 175 Kbps
Width : 1 280 pixels
Height : 696 pixels
Display aspect ratio : 16:9
Frame rate : 23.976 fps
Color space : YUV
Chroma subsampling : 4:2:0
Bit depth : 8 bits
Scan type : Progressive
Bits/(Pixel*Frame) : 0.242
Stream size : 3.28 GiB (67%)
Writing library : x264 core 104 r1688 0b36c6d
Encoding settings : cabac=1 / ref=5 / deblock=1:0:0 / analyse=0x3:0x133 / me=umh / subme=7 / psy=1 / psy_rd=1.00:0.00 / mixed_ref=1 / me_range=16 / chroma_me=1 / trellis=1 / 8x8dct=1 / cqm=0 / deadzone=21,11 / fast_pskip=0 / chroma_qp_offset=-2 / threads=12 / sliced_threads=0 / nr=0 / decimate=1 / interlaced=0 / constrained_intra=0 / bframes=3 / b_pyramid=2 / b_adapt=1 / b_bias=0 / direct=1 / weightb=1 / open_gop=0 / weightp=2 / keyint=250 / keyint_min=23 / scenecut=40 / intra_refresh=0 / rc_lookahead=40 / rc=2pass / mbtree=1 / bitrate=5175 / ratetol=1.0 / qcomp=0.60 / qpmin=10 / qpmax=51 / qpstep=4 / cplxblur=20.0 / qblur=0.5 / ip_ratio=1.40 / aq=1:1.00
Language : English
Audio #1
ID : 2
Format : AC-3
Format/Info : Audio Coding 3
Mode extension : CM (complete main)
Codec ID : A_AC3
Duration : 1h 33mn
Bit rate mode : Constant
Bit rate : 448 Kbps
Channel(s) : 6 channels
Channel positions : Front: L C R, Side: L R, LFE
Sampling rate : 48.0 KHz
Stream size : 300 MiB (6%)
Title : Многоголосый
Language : Russian
Audio #2
ID : 3
Format : AC-3
Format/Info : Audio Coding 3
Mode extension : CM (complete main)
Codec ID : A_AC3
Duration : 1h 33mn
Bit rate mode : Constant
Bit rate : 192 Kbps
Channel(s) : 2 channels
Channel positions : Front: L R
Sampling rate : 48.0 KHz
Stream size : 129 MiB (3%)
Title : Гаврилов
Language : Russian
Audio #3
ID : 4
Format : AC-3
Format/Info : Audio Coding 3
Mode extension : CM (complete main)
Codec ID : A_AC3
Duration : 1h 33mn
Bit rate mode : Constant
Bit rate : 192 Kbps
Channel(s) : 2 channels
Channel positions : Front: L R
Sampling rate : 48.0 KHz
Stream size : 129 MiB (3%)
Title : Горчаков
Language : Russian
Audio #4
ID : 5
Format : DTS
Format/Info : Digital Theater Systems
Codec ID : A_DTS
Duration : 1h 33mn
Bit rate mode : Constant
Bit rate : 1 510 Kbps
Channel(s) : 2 channels
Channel positions : Front: L R
Sampling rate : 48.0 KHz
Bit depth : 24 bits
Stream size : 1 011 MiB (20%)
Language : English
Text #1
ID : 6
Format : UTF-8
Codec ID : S_TEXT/UTF8
Codec ID/Info : UTF-8 Plain Text
Language : Russian
Text #2
ID : 7
Format : UTF-8
Codec ID : S_TEXT/UTF8
Codec ID/Info : UTF-8 Plain Text
Language : English

Скриншоты

[Цитировать]



Показать сообщения:    

Текущее время: 02-Дек 22:57

Часовой пояс: UTC + 3


Вы не можете начинать темы
Вы не можете отвечать на сообщения
Вы не можете редактировать свои сообщения
Вы не можете удалять свои сообщения
Вы не можете голосовать в опросах
Вы не можете прикреплять файлы к сообщениям
Вы не можете скачивать файлы

!ВНИМАНИЕ!
Сайт не предоставляет электронные версии произведений, а занимается лишь коллекционированием и каталогизацией ссылок, присылаемых и публикуемых на форуме нашими читателями. Если вы являетесь правообладателем какого-либо представленного материала и не желаете, чтобы ссылка на него находилась в нашем каталоге, свяжитесь с нами, и мы незамедлительно удалим ее. Файлы для обмена на трекере предоставлены пользователями сайта, и администрация не несет ответственности за их содержание. Просьба не заливать файлы, защищенные авторскими правами, а также файлы нелегального содержания!