[ Сегодня идет свободное скачивание без начисления Download ]


Статистика раздачи
Нет
 
   
 
Top  
 
 
-Реальные парни / Stand Up Guys (2012) BDRip
«Жгут как в последний раз! Таких уже не делают»
- Русское название: Реальные парни
Оригинальное название: Stand Up Guys
Год выпуска: 2012
Производство: США / Lionsgate, Sidney Kimmel Entertainment, Lakeshore Entertainment
Жанр: Драма, Комедия, Криминал
Перевод: Дублированный [лицензия]
Субтитры: Отсутствуют
Дата мировой премьеры: 11 октября 2012
Дата российской премьеры: 31 января 2013, «Top Film Distribution»
Дата выхода DVD релиза: 5 марта 2013, «Lizard Cinema Trade»
Дата выхода Blu-Ray релиза: 5 марта 2013, «Lizard Cinema Trade»
Режиссер: Фишер Стивенс
Актеры: Аль Пачино, Кристофер Уокен, Алан Аркин, Джулианна Маргулис, Марк Марголис, Люси Панч, Эддисон Тимлин, Ванесса Ферлито, Кэтрин Уинник, Билли Барр
Описание фильма:
История строится вокруг двух уже немолодых преступников, один из которых получил задание убить близкого друга. Столь непростая ситуация требует времени на обдумывание, и киллеры решают вместе с приятелем изрядно побуянить (включая посещение борделя, угон машин и бегство от полиции), прежде чем будет принято окончательное решение.

Продолжительность: 01:34:58
Качество видео: BDRip [MysTeRy]
Видеокодек: MPEG-4 AVC/H.264
Битрейт видео: ~2386 Кбит/сек
Размер кадра: 1024 x 428
Аудио #1: Русский (Dolby AC3, 6 ch) 448 Кбит/сек
Аудио #2: Английский (Dolby AC3, 6 ch) 448 Кбит/сек

MediaInfo:

Общее
Уникальный идентификатор         : 202185723488672183202166911262234414876 (0x981B8DCDAA24EE9F86BCFC6A77C68F1C)
Полное имя                       : H:\Real'nyie.parni.2012.D.x264.BDRip-MysTeRy.mkv
Формат                           : Matroska
Версия формата                   : Version 4 / Version 2
Размер файла                     : 2,18 Гбайт
Продолжительность                : 1 ч. 34 м.
Общий поток                      : 3283 Кбит/сек
Название фильма                  : Real'nyie.parni.2012.D.x264.BDRip-MysTeRy
Дата кодирования                 : UTC 2013-04-06 17:50:29
Программа кодирования            : mkvmerge v6.1.0 ('Old Devil') built on Mar  2 2013 14:32:37
Библиотека кодирования           : libebml v1.3.0 + libmatroska v1.4.0
Видео
Идентификатор                    : 1
Формат                           : AVC
Формат/Информация                : Advanced Video Codec
Профиль формата                  : [url=mailto:High@L4.1]High@L4.1[/url]
Параметр CABAC формата           : Да
Параметр ReFrames формата        : 12 кадров
Идентификатор кодека             : V_MPEG4/ISO/AVC
Продолжительность                : 1 ч. 34 м.
Битрейт                          : 2386 Кбит/сек
Ширина                           : 1024 пикселя
Высота                           : 428 пикселей
Соотношение сторон               : 2,40:1
Частота кадров                   : 23,976 кадра/сек
Цветовое пространство            : YUV
Субдискретизация насыщенности    : 4:2:0
Битовая глубина                  : 8 бит
Тип развёртки                    : Прогрессивная
Бит/(Пиксели*Кадры)              : 0.227
Размер потока                    : 1,54 Гбайт (71%)
Заголовок                        : ENCODER........: MysTeRy
Библиотека кодирования           : x264 core 130 r2273 b3065e6
Настройки программы              : cabac=1 / ref=12 / deblock=1:-3:-3 / analyse=0x3:0x133 / me=umh / subme=10 / psy=1 / psy_rd=1.00:0.00 / mixed_ref=1 / me_range=32 / chroma_me=1 / trellis=2 / 8x8dct=1 / cqm=0 / deadzone=21,11 / fast_pskip=0 / chroma_qp_offset=-2 / threads=12 / lookahead_threads=2 / sliced_threads=0 / nr=0 / decimate=0 / interlaced=0 / bluray_compat=0 / constrained_intra=0 / bframes=8 / b_pyramid=2 / b_adapt=2 / b_bias=0 / direct=3 / weightb=1 / open_gop=0 / weightp=2 / keyint=250 / keyint_min=23 / scenecut=40 / intra_refresh=0 / rc_lookahead=60 / rc=2pass / mbtree=0 / bitrate=2386 / ratetol=1.0 / qcomp=0.70 / qpmin=0 / qpmax=69 / qpstep=4 / cplxblur=20.0 / qblur=0.5 / vbv_maxrate=50000 / vbv_bufsize=61400 / nal_hrd=none / ip_ratio=1.40 / pb_ratio=1.30 / aq=1:0.90
Язык                             : English
Default                          : Да
Forced                           : Нет
Основные цвета                   : BT.709-5, BT.1361, IEC 61966-2-4, SMPTE RP177
Характеристики трансфера         : BT.709-5, BT.1361
Коэффициенты матрицы             : BT.709-5, BT.1361, IEC 61966-2-4 709, SMPTE RP177
Аудио #1
Идентификатор                    : 2
Формат                           : AC-3
Формат/Информация                : Audio Coding 3
Расширение режима                : CM (complete main)
Идентификатор кодека             : A_AC3
Продолжительность                : 1 ч. 34 м.
Вид битрейта                     : Постоянный
Битрейт                          : 448 Кбит/сек
Каналы                           : 6 каналов
Расположение каналов             : Front: L C R, Side: L R, LFE
Частота                          : 48,0 КГц
Битовая глубина                  : 16 бит
Метод сжатия                     : С потерями
Размер потока                    : 304 Мбайт (14%)
Заголовок                        : Dub
Язык                             : Russian
Default                          : Да
Forced                           : Нет
Аудио #2
Идентификатор                    : 3
Формат                           : AC-3
Формат/Информация                : Audio Coding 3
Расширение режима                : CM (complete main)
Идентификатор кодека             : A_AC3
Продолжительность                : 1 ч. 34 м.
Вид битрейта                     : Постоянный
Битрейт                          : 448 Кбит/сек
Каналы                           : 6 каналов
Расположение каналов             : Front: L C R, Side: L R, LFE
Частота                          : 48,0 КГц
Битовая глубина                  : 16 бит
Метод сжатия                     : С потерями
Размер потока                    : 304 Мбайт (14%)
Язык                             : English
Default                          : Нет
Forced                           : Нет
Меню
00:00:00.000                     : en:Chapter 00
00:04:51.332                     : en:Chapter 01
00:08:54.283                     : en:Chapter 02
00:15:26.926                     : en:Chapter 03
00:23:22.651                     : en:Chapter 04
00:28:52.856                     : en:Chapter 05
00:32:13.056                     : en:Chapter 06
00:40:56.745                     : en:Chapter 07
00:47:59.042                     : en:Chapter 08
00:52:39.906                     : en:Chapter 09
00:59:48.668                     : en:Chapter 10
01:04:36.289                     : en:Chapter 11
01:11:03.717                     : en:Chapter 12
01:19:53.163                     : en:Chapter 13
01:24:09.461                     : en:Chapter 14
01:29:34.369                     : en:Chapter 15

x264:

avs [info]: 1024x428p 1:1 @ 2500000/104271 fps (cfr)
x264 [info]: using SAR=1/1
x264 [info]: using cpu capabilities: MMX2 SSE2Fast SSSE3 SSE4.2 AVX
x264 [info]: profile High, level 4.1
x264 [info]: frame I:1195  Avg QP:13.40  size: 59790
x264 [info]: frame P:31730 Avg QP:15.91  size: 24161
x264 [info]: frame B:103694 Avg QP:17.49  size:  8298
x264 [info]: consecutive B-frames:  3.2%  2.7%  9.0% 22.3% 19.7% 37.3%  4.2%  0.8%  0.8%
x264 [info]: mb I  I16..4:  8.1% 72.7% 19.2%
x264 [info]: mb P  I16..4:  2.2% 12.7%  1.7%  P16..4: 34.4% 24.2% 15.7%  0.7%  0.2%    skip: 8.2%
x264 [info]: mb B  I16..4:  0.2%  0.9%  0.1%  B16..8: 33.6% 15.7%  4.7%  direct:10.0%  skip:34.8%  L0:42.8% L1:38.9% BI:18.4%
x264 [info]: 8x8 transform intra:75.8% inter:54.1%
x264 [info]: direct mvs  spatial:98.3% temporal:1.7%
x264 [info]: coded y,uvDC,uvAC intra: 85.4% 78.0% 68.2% inter: 29.3% 32.5% 19.0%
x264 [info]: i16 v,h,dc,p: 52% 21%  9% 19%
x264 [info]: i8 v,h,dc,ddl,ddr,vr,hd,vl,hu: 15% 11% 12%  8% 11% 12% 10% 11% 12%
x264 [info]: i4 v,h,dc,ddl,ddr,vr,hd,vl,hu: 16% 12%  7%  8% 13% 13% 11% 10% 10%
x264 [info]: i8c dc,h,v,p: 54% 18% 17% 11%
x264 [info]: Weighted P-Frames: Y:4.1% UV:2.1%
x264 [info]: ref P L0: 43.2% 10.6% 17.3%  6.3%  5.8%  3.8%  3.7%  2.1%  2.2%  1.6%  1.7%  1.5%  0.3%  0.0%
x264 [info]: ref B L0: 70.8% 11.6%  5.4%  3.2%  2.3%  2.0%  1.7%  1.2%  1.0%  0.6%  0.3%
x264 [info]: ref B L1: 93.8%  6.2%
x264 [info]: kb/s:2384.63
x264 [total]: encoded 136619 frames, 9.95 fps, 2384.63 kb/s
Скриншоты:



Время раздачи: 16.30-23.00 до 5 скачавших

[Цитировать]

Топик был перенесен из форума Новинки кинопроката в форум Драма
Henkok



Показать сообщения:    

Текущее время: 09-Дек 05:02

Часовой пояс: UTC + 3


Вы не можете начинать темы
Вы не можете отвечать на сообщения
Вы не можете редактировать свои сообщения
Вы не можете удалять свои сообщения
Вы не можете голосовать в опросах
Вы не можете прикреплять файлы к сообщениям
Вы не можете скачивать файлы

!ВНИМАНИЕ!
Сайт не предоставляет электронные версии произведений, а занимается лишь коллекционированием и каталогизацией ссылок, присылаемых и публикуемых на форуме нашими читателями. Если вы являетесь правообладателем какого-либо представленного материала и не желаете, чтобы ссылка на него находилась в нашем каталоге, свяжитесь с нами, и мы незамедлительно удалим ее. Файлы для обмена на трекере предоставлены пользователями сайта, и администрация не несет ответственности за их содержание. Просьба не заливать файлы, защищенные авторскими правами, а также файлы нелегального содержания!