[ Сегодня идет свободное скачивание без начисления Download ]


Статистика раздачи
Нет
 
   
 
 
 
-Пятница / Friday (1995) BDRip- Русское название: Пятница
Оригинальное название: Friday
Страна: США
Производство: New Line Cinema
Год выпуска: 1995
Жанр: Комедия-Описание фильма:
Забавная бытовая комедия, действие которой происходит в пятницу в одном из районов Лос-Анджелеса — Южном Централе. Крэйг и Смоки — два приятеля, любящих посидеть вечерком на пороге своего дома, выпить, покурить, поглазеть на улицу.
Но сегодня у них возникла одна проблема: взяв на продажу порцию «травки», они не удержались и раскурили ее сами. Но за удовольствие надо платить — к 10 часам вечера им необходимого раздобыть 200 долларов, чтобы отдать их наркодилеру.-Режиссер: Ф. Гэри Грей
Актеры: Айс Кьюб, Крис Такер, Ниа Лонг, Том ’Тайни’ Листер мл., Джон Уизерспун, Анна Мария Хорсфорд, Реджина Кинг, Пола Джей Паркер, Фэйзон Лав, Ди-Джей Пух-Продолжительность: 01:37:06
Перевод: Авторский (одноголосый, закадровый) Санаев + Профессиональный (многоголосый, закадровый)
Cубтитры: русские, английские- -Видеокодек: MPEG-4 AVC/H.264
Битрейт видео: ~10.8 Mbps
Размер кадра: 1920x1080p
Качество видео: BDRip 1080p-Аудио 1: Русский AC3 Dolby Digital, 3/2 (L,C,R,l,r) + LFE ch, ~448.00 kbps avg | AVO
Аудио 2: Русский AC3 Dolby Digital, 2/0 (L,R) ch, ~192.00 kbps avg | MVO
Аудио 3: Английский AC3 Dolby Digital, 3/2 (L,C,R,l,r) + LFE ch, ~640.00 kbps avg | Оригинал
-

MediaInfo:

General
Complete name : O:\Friday.1995.Directors.Cut.1080p.BluRay.x264.mkv
Format : Matroska
File size : 8.38 GiB
Duration : 1h 37mn
Overall bit rate : 12.4 Mbps
Encoded date : UTC 2012-02-20 14:43:56
Writing application : mkvmerge v3.0.0 built on Jan 6 2010 22:49:38
Writing library : libebml v0.7.9 + libmatroska v0.8.1
Video
ID : 1
Format : AVC
Format/Info : Advanced Video Codec
Format profile : [email protected]
Format settings, CABAC : Yes
Format settings, ReFrames : 4 frames
Muxing mode : Container [email protected]
Codec ID : V_MPEG4/ISO/AVC
Duration : 1h 37mn
Bit rate : 10.8 Mbps
Nominal bit rate : 11.1 Mbps
Width : 1 920 pixels
Height : 1 080 pixels
Display aspect ratio : 16:9
Frame rate : 23.976 fps
Resolution : 8 bits
Colorimetry : 4:2:0
Scan type : Progressive
Bits/(Pixel*Frame) : 0.218
Stream size : 7.34 GiB (88%)
Writing library : x264 core 75 r1247 b3efbe5
Encoding settings : cabac=1 / ref=4 / deblock=1:0:0 / analyse=0x3:0x113 / me=umh / subme=7 / psy=1 / psy_rd=1.0:0.0 / mixed_ref=1 / me_range=16 / chroma_me=1 / trellis=1 / 8x8dct=1 / cqm=0 / deadzone=21,11 / chroma_qp_offset=-2 / threads=6 / nr=0 / decimate=1 / mbaff=0 / bframes=3 / b_pyramid=0 / b_adapt=1 / b_bias=0 / direct=1 / wpredb=1 / keyint=250 / keyint_min=25 / scenecut=40 / rc_lookahead=40 / rc=2pass / mbtree=1 / bitrate=11072 / ratetol=1.0 / qcomp=0.60 / qpmin=10 / qpmax=51 / qpstep=4 / cplxblur=20.0 / qblur=0.5 / ip_ratio=1.40 / aq=1:1.00
Language : English
Audio #1
ID : 2
Format : AC-3
Format/Info : Audio Coding 3
Codec ID : A_AC3
Duration : 1h 37mn
Bit rate mode : Constant
Bit rate : 448 Kbps
Channel(s) : 6 channels
Channel positions : Front: L C R, Surround: L R, LFE
Sampling rate : 48.0 KHz
Stream size : 311 MiB (4%)
Title : AVO_Sanaev
Language : Russian
Audio #2
ID : 3
Format : AC-3
Format/Info : Audio Coding 3
Codec ID : A_AC3
Duration : 1h 37mn
Bit rate mode : Constant
Bit rate : 192 Kbps
Channel(s) : 2 channels
Channel positions : L R
Sampling rate : 48.0 KHz
Stream size : 133 MiB (2%)
Title : MVO
Language : Russian
Audio #3
ID : 4
Format : AC-3
Format/Info : Audio Coding 3
Codec ID : A_AC3
Duration : 1h 37mn
Bit rate mode : Constant
Bit rate : 640 Kbps
Channel(s) : 6 channels
Channel positions : Front: L C R, Surround: L R, LFE
Sampling rate : 48.0 KHz
Stream size : 445 MiB (5%)
Language : English
Text #1
ID : 5
Format : UTF-8
Codec ID : S_TEXT/UTF8
Codec ID/Info : UTF-8 Plain Text
Language : Russian
Text #2
ID : 6
Format : UTF-8
Codec ID : S_TEXT/UTF8
Codec ID/Info : UTF-8 Plain Text
Language : English
-Скриншоты:
Время раздачи: 24/7 - круглосуточно

[Цитировать]



Показать сообщения:    

Текущее время: 06-Дек 22:58

Часовой пояс: UTC + 3


Вы не можете начинать темы
Вы не можете отвечать на сообщения
Вы не можете редактировать свои сообщения
Вы не можете удалять свои сообщения
Вы не можете голосовать в опросах
Вы не можете прикреплять файлы к сообщениям
Вы не можете скачивать файлы

!ВНИМАНИЕ!
Сайт не предоставляет электронные версии произведений, а занимается лишь коллекционированием и каталогизацией ссылок, присылаемых и публикуемых на форуме нашими читателями. Если вы являетесь правообладателем какого-либо представленного материала и не желаете, чтобы ссылка на него находилась в нашем каталоге, свяжитесь с нами, и мы незамедлительно удалим ее. Файлы для обмена на трекере предоставлены пользователями сайта, и администрация не несет ответственности за их содержание. Просьба не заливать файлы, защищенные авторскими правами, а также файлы нелегального содержания!