[ Сегодня идет свободное скачивание без начисления Download ]


Статистика раздачи
Нет
 
   
 
 
 
-Посылка / The Box (2009) BDRip- Русское название: Посылка
Оригинальное название: The Box
Год выпуска: 2009
Производство: США / Darko Entertainment, Lin Pictures, Media Rights Capital, Radar Pictures Inc.
Жанр: Триллер, Драма, Детектив-Описание фильма:
Симпатичная американская семья оказывается на грани кризиса: испытывая финансовые затруднения, супруги постоянно ссорятся. Но однажды на пороге их дома кто-то оставляет загадочную посылку. Внутри — странный агрегат с большой красной кнопкой. На следующий день появляется таинственный незнакомец и объясняет ее предназначение. Если нажать на кнопку, произойдет два события. Первое - они получат миллион долларов. Второе — где-то умрет совершенно незнакомый им человек. Супруги оказываются перед мучительным выбором, но им невдомек, что ужасающих последствий не избежать в любом случае…-Режиссер: Ричард Келли
Актеры: Кэмерон Диаз, Джеймс Мэрсден, Фрэнк Ланджелла, Джеймс Ребхорн, Холмс Осборн, Сэм Стоун, Джиллиан Джейкобс, Селия Уэстон, Дебора Раш, Лиза К. Виатт, Марк С. Картье, Кевин Робертсон, Мишель Дюрретт, Йен Кан, Джон Магаро, Райан Вудл, Бейзил Хоффман, Роберт Харви, Гентри Ли, Эндрю Левитас, Гэбриел Филд, Фрэнк Ридли, Дэниэл Стюарт-Шерман, Мэттью С. Флинн, Патрик Кэнти, Сэм Блюменфилд, Кевин ДеКосте, Мэри Клуг-Продолжительность: 01:55:00
Перевод: Дублированный
Язык субтитров: Русские, английские
Вид субтитров: Вшитые [отключаемые]- -Видеокодек: MPEG-4 AVC/H.264
Битрейт видео: ~7705 Кбит/с
Размер кадра: 1920x800
Качество видео: BDRip 1080p
Аудио#1: Русский (DTS, 6 ch, 1510 Кбит/с)
Аудио#2: Английский (DTS, 6 ch, 1510 Кбит/с)

MediaInfo

Общее
Уникальный идентификатор : 218867070582478043890324000087144512323 (0xA4A843B6C3A4EE95B5F673E2B9F9BB43)
Полное имя : D:\Торрент раздача\Posylka.2009.x264.BDRip.(1080p).mkv
Формат : Matroska
Версия формата : Version 2
Размер файла : 8,65 Гбайт
Продолжительность : 1 ч. 55 м.
Общий поток : 10,7 Мбит/сек
Название фильма : The Box
Дата кодирования : UTC 2013-04-06 15:21:02
Программа кодирования : mkvmerge v4.0.0 ('The Stars were mine') сборка от Jun 6 2010 16:18:42
Библиотека кодирования : libebml v1.0.0 + libmatroska v1.0.0
Видео
Идентификатор : 1
Формат : AVC
Формат/Информация : Advanced Video Codec
Профиль формата : High@L4.1
Параметр CABAC формата : Да
Параметр ReFrames формата : 5 кадров
Идентификатор кодека : V_MPEG4/ISO/AVC
Продолжительность : 1 ч. 55 м.
Битрейт : 7705 Кбит/сек
Ширина : 1920 пикселей
Высота : 800 пикселей
Соотношение сторон : 2,40:1
Режим частоты кадров : Постоянный
Частота кадров : 23,976 кадра/сек
Цветовое пространство : YUV
Субдискретизация насыщенности : 4:2:0
Битовая глубина : 8 бит
Тип развёртки : Прогрессивная
Бит/(Пиксели*Кадры) : 0.209
Размер потока : 6,04 Гбайт (70%)
Заголовок : Посылка / The Box
Библиотека кодирования : x264 core 84 r1416 fcf70c2
Настройки программы : cabac=1 / ref=5 / deblock=1:-3:-3 / analyse=0x3:0x113 / me=umh / subme=10 / psy=1 / psy_rd=1.0:0.1 / mixed_ref=1 / me_range=32 / chroma_me=1 / trellis=2 / 8x8dct=1 / cqm=0 / deadzone=21,11 / fast_pskip=0 / chroma_qp_offset=-3 / threads=6 / sliced_threads=0 / nr=0 / decimate=0 / mbaff=0 / constrained_intra=0 / bframes=6 / b_pyramid=2 / b_adapt=2 / b_bias=0 / direct=3 / wpredb=1 / wpredp=2 / keyint=240 / keyint_min=24 / scenecut=40 / intra_refresh=0 / rc_lookahead=80 / rc=2pass / mbtree=1 / bitrate=7705 / ratetol=1.0 / qcomp=0.70 / qpmin=10 / qpmax=51 / qpstep=4 / cplxblur=20.0 / qblur=0.5 / ip_ratio=1.40 / aq=1:0.80
Язык : English
Default : Да
Forced : Да
Аудио #1
Идентификатор : 2
Формат : DTS
Формат/Информация : Digital Theater Systems
Режим : 16
Параметр Endianness формата : Big
Идентификатор кодека : A_DTS
Продолжительность : 1 ч. 55 м.
Вид битрейта : Постоянный
Битрейт : 1509 Кбит/сек
Каналы : 6 каналов
Расположение каналов : Front: L C R, Side: L R, LFE
Частота : 48,0 КГц
Битовая глубина : 24 бит
Метод сжатия : С потерями
Размер потока : 1,22 Гбайт (14%)
Заголовок : Русский (DTS, 6 ch, 1510 Кбит/с) - ДБ
Язык : Russian
Default : Да
Forced : Да
Аудио #2
Идентификатор : 3
Формат : DTS
Формат/Информация : Digital Theater Systems
Режим : 16
Параметр Endianness формата : Big
Идентификатор кодека : A_DTS
Продолжительность : 1 ч. 55 м.
Вид битрейта : Постоянный
Битрейт : 1509 Кбит/сек
Каналы : 6 каналов
Расположение каналов : Front: L C R, Side: L R, LFE
Частота : 48,0 КГц
Битовая глубина : 24 бит
Метод сжатия : С потерями
Размер потока : 1,22 Гбайт (14%)
Заголовок : Английский (DTS, 6 ch, 1510 Кбит/с)
Язык : English
Default : Нет
Forced : Нет
Текст #1
Идентификатор : 4
Формат : UTF-8
Идентификатор кодека : S_TEXT/UTF8
Идентификатор кодека/Информация : UTF-8 Plain Text
Язык : Russian
Default : Нет
Forced : Нет
Текст #2
Идентификатор : 5
Формат : UTF-8
Идентификатор кодека : S_TEXT/UTF8
Идентификатор кодека/Информация : UTF-8 Plain Text
Язык : English
Default : Нет
Forced : Нет
Скриншоты:
Время раздачи: 24/7

[Цитировать]



Показать сообщения:    

Текущее время: 08-Дек 10:57

Часовой пояс: UTC + 3


Вы не можете начинать темы
Вы не можете отвечать на сообщения
Вы не можете редактировать свои сообщения
Вы не можете удалять свои сообщения
Вы не можете голосовать в опросах
Вы не можете прикреплять файлы к сообщениям
Вы не можете скачивать файлы

!ВНИМАНИЕ!
Сайт не предоставляет электронные версии произведений, а занимается лишь коллекционированием и каталогизацией ссылок, присылаемых и публикуемых на форуме нашими читателями. Если вы являетесь правообладателем какого-либо представленного материала и не желаете, чтобы ссылка на него находилась в нашем каталоге, свяжитесь с нами, и мы незамедлительно удалим ее. Файлы для обмена на трекере предоставлены пользователями сайта, и администрация не несет ответственности за их содержание. Просьба не заливать файлы, защищенные авторскими правами, а также файлы нелегального содержания!