[ Сегодня идет свободное скачивание без начисления Download ]


Статистика раздачи
Скачал: [ 1 ]
 
   
 
Top  
 
 
Хелло, Долли! / Hello, Dolly! Страна: США
Жанр: Мюзикл, мелодрама, комедия
Год выпуска: 1969
Продолжительность: 02:28:37
Перевод: Профессиональный (многоголосый закадровый)
Cубтитры: Русские, английские

Режиссер: Джин Келли / Gene Kelly
В ролях: Барбра Стрейзанд, Уолтер Мэттау, Майкл Кроуфорд, Марианн МакЭндрю, Дэнни Локин, Э.Дж. Пикер, Джойс Амес, Томми Тьюн, Джуди Кнейз, Дэвид Херст, Фриц Фельд, Ричард Колье, Луи Армстронг

Описание:Нью-Йорк. 1890 год. «Миссис Долли Левай, организует знакомства в атмосфере элегантности и утонченности с целью заключения брака!» Такими словами начинается этот киномюзикл. Простая история о свахе, которая находит всем мужей и жен и не забывает про себя, превращена в феерическое шоу с участием актеров, певцов и танцоров.

Качество видео: BDRip (1080p)
Формат видео: MKV
Видео: MPEG-4 AVC, 1920x872, 23.976 fps, 11.1 Mbps
Аудио 1: Русский (AC3, 48 kHz, 6 ch, 448 kbps)
Аудио 2: Английский (DTS, 48 kHz, 6 ch, 1510 kbps)
Формат субтитров: softsub (SRT)

MediaInfo

Общее
Уникальный идентификатор                 : 203891943995016842029862006802824173399 (0x996428F81D69A4E0AAB750BA74E21757)
Полное имя                               : E:\Video\Hello.Dolly.1969.BluRay.1080p.DTS.x264-CHD.mkv
Формат                                   : Matroska
Версия формата                           : Version 2
Размер файла                             : 13,5 Гбайт
Продолжительность                        : 2 ч. 28 м.
Общий поток                              : 13,0 Мбит/сек
Дата кодирования                         : UTC 2013-04-03 18:47:34
Программа кодирования                    : mkvmerge v6.1.0 ('Old Devil') built on Mar  2 2013 14:32:37
Библиотека кодирования                   : libebml v1.3.0 + libmatroska v1.4.0
Видео
Идентификатор                            : 1
Формат                                   : AVC
Формат/Информация                        : Advanced Video Codec
Профиль формата                          : [email protected]
Параметр CABAC формата                   : Да
Параметр ReFrames формата                : 4 кадра
Идентификатор кодека                     : V_MPEG4/ISO/AVC
Продолжительность                        : 2 ч. 28 м.
Битрейт                                  : 11,1 Мбит/сек
Ширина                                   : 1920 пикселей
Высота                                   : 872 пикселя
Соотношение сторон                       : 2,2:1
Режим частоты кадров                     : Постоянный
Частота кадров                           : 23,976 кадра/сек
Цветовое пространство                    : YUV
Субдискретизация насыщенности            : 4:2:0
Битовая глубина                          : 8 бит
Тип развёртки                            : Прогрессивная
Бит/(Пиксели*Кадры)                      : 0.276
Размер потока                            : 11,2 Гбайт (83%)
Заголовок                                : Hello.Dolly.1969.BluRay.1080p.DTS.x264-CHD
Библиотека кодирования                   : x264 core 129 r2245+729M 1a52e03
Настройки программы                      : cabac=1 / ref=4 / deblock=1:-3:-3 / analyse=0x3:0x113 / me=umh / subme=10 / psy=1 / fade_compensate=0.00 / psy_rd=1.05:0.10 / mixed_ref=1 / me_range=48 / chroma_me=1 / trellis=2 / 8x8dct=1 / cqm=0 / deadzone=21,11 / fast_pskip=0 / chroma_qp_offset=-2 / threads=12 / lookahead_threads=1 / sliced_threads=0 / nr=0 / decimate=1 / interlaced=0 / bluray_compat=0 / constrained_intra=0 / fgo=0 / bframes=6 / b_pyramid=2 / b_adapt=2 / b_bias=0 / direct=3 / weightb=1 / open_gop=0 / weightp=2 / keyint=250 / keyint_min=23 / scenecut=40 / intra_refresh=0 / rc_lookahead=40 / rc=2pass / mbtree=0 / bitrate=11075 / ratetol=2.0 / qcomp=0.70 / qpmin=0 / qpmax=69 / qpstep=4 / cplxblur=20.0 / qblur=0.5 / vbv_maxrate=40000 / vbv_bufsize=30000 / nal_hrd=none / ip_ratio=1.40 / pb_ratio=1.30 / aq=2:1.00
Язык                                     : English
Default                                  : Нет
Forced                                   : Нет
Аудио #1
Идентификатор                            : 2
Формат                                   : AC-3
Формат/Информация                        : Audio Coding 3
Расширение режима                        : CM (complete main)
Параметр Endianness формата              : Big
Идентификатор кодека                     : A_AC3
Продолжительность                        : 2 ч. 28 м.
Вид битрейта                             : Постоянный
Битрейт                                  : 448 Кбит/сек
Каналы                                   : 6 каналов
Расположение каналов                     : Front: L C R, Side: L R, LFE
Частота                                  : 48,0 КГц
Битовая глубина                          : 16 бит
Метод сжатия                             : С потерями
Размер потока                            : 476 Мбайт (3%)
Заголовок                                : MVO DD 5.1 448 kbps
Язык                                     : Russian
Default                                  : Да
Forced                                   : Нет
Аудио #2
Идентификатор                            : 3
Формат                                   : DTS
Формат/Информация                        : Digital Theater Systems
Режим                                    : 16
Параметр Endianness формата              : Big
Идентификатор кодека                     : A_DTS
Продолжительность                        : 2 ч. 28 м.
Вид битрейта                             : Постоянный
Битрейт                                  : 1509 Кбит/сек
Каналы                                   : 6 каналов
Расположение каналов                     : Front: L C R, Side: L R, LFE
Частота                                  : 48,0 КГц
Битовая глубина                          : 24 бит
Метод сжатия                             : С потерями
Размер потока                            : 1,57 Гбайт (12%)
Заголовок                                : DTS 5.1 1536kbps
Язык                                     : English
Default                                  : Нет
Forced                                   : Нет
Текст #1
Идентификатор                            : 4
Формат                                   : UTF-8
Идентификатор кодека                     : S_TEXT/UTF8
Идентификатор кодека/Информация          : UTF-8 Plain Text
Заголовок                                : Russian [Force]
Язык                                     : Russian
Default                                  : Да
Forced                                   : Да
Текст #2
Идентификатор                            : 5
Формат                                   : UTF-8
Идентификатор кодека                     : S_TEXT/UTF8
Идентификатор кодека/Информация          : UTF-8 Plain Text
Заголовок                                : Russian [Full]
Язык                                     : Russian
Default                                  : Нет
Forced                                   : Нет
Текст #3
Идентификатор                            : 6
Формат                                   : UTF-8
Идентификатор кодека                     : S_TEXT/UTF8
Идентификатор кодека/Информация          : UTF-8 Plain Text
Заголовок                                : English
Язык                                     : English
Default                                  : Нет
Forced                                   : Нет
Текст #4
Идентификатор                            : 7
Формат                                   : UTF-8
Идентификатор кодека                     : S_TEXT/UTF8
Идентификатор кодека/Информация          : UTF-8 Plain Text
Заголовок                                : English [SDH]
Язык                                     : English
Default                                  : Нет
Forced                                   : Нет
Меню
00:00:00.000                             : en:00:00:00.000
00:06:44.821                             : en:00:06:44.821
00:09:45.919                             : en:00:09:45.919
00:15:48.865                             : en:00:15:48.865
00:24:00.397                             : en:00:24:00.397
00:25:59.057                             : en:00:25:59.057
00:31:08.325                             : en:00:31:08.325
00:32:23.608                             : en:00:32:23.608
00:36:43.827                             : en:00:36:43.827
00:39:37.500                             : en:00:39:37.500
00:46:56.313                             : en:00:46:56.313
00:56:27.593                             : en:00:56:27.593
01:05:26.881                             : en:01:05:26.881
01:16:09.607                             : en:01:16:09.607
01:18:18.527                             : en:01:18:18.527
01:22:07.131                             : en:01:22:07.131
01:26:21.301                             : en:01:26:21.301
01:29:19.229                             : en:01:29:19.229
01:32:13.027                             : en:01:32:13.027
01:41:08.062                             : en:01:41:08.062
01:46:40.185                             : en:01:46:40.185
02:00:32.767                             : en:02:00:32.767
02:06:26.579                             : en:02:06:26.579
02:11:40.976                             : en:02:11:40.976
02:18:23.128                             : en:02:18:23.128
02:23:40.153                             : en:02:23:40.153
02:26:37.539                             : en:02:26:37.539
02:27:03.314                             : en:02:27:03.314

Награды и премии

Скриншоты


[Цитировать]



Показать сообщения:    

Текущее время: 06-Дек 15:16

Часовой пояс: UTC + 3


Вы не можете начинать темы
Вы не можете отвечать на сообщения
Вы не можете редактировать свои сообщения
Вы не можете удалять свои сообщения
Вы не можете голосовать в опросах
Вы не можете прикреплять файлы к сообщениям
Вы не можете скачивать файлы

!ВНИМАНИЕ!
Сайт не предоставляет электронные версии произведений, а занимается лишь коллекционированием и каталогизацией ссылок, присылаемых и публикуемых на форуме нашими читателями. Если вы являетесь правообладателем какого-либо представленного материала и не желаете, чтобы ссылка на него находилась в нашем каталоге, свяжитесь с нами, и мы незамедлительно удалим ее. Файлы для обмена на трекере предоставлены пользователями сайта, и администрация не несет ответственности за их содержание. Просьба не заливать файлы, защищенные авторскими правами, а также файлы нелегального содержания!