[ Сегодня идет свободное скачивание без начисления Download ]


Статистика раздачи
Нет
 
   
 
Top  
 
 
Горбун из Нотр Дама
The Hunchback of Notre Dame
--Страна: США
Жанр: мультфильм, мюзикл, драма, мелодрама, семейный
Год выпуска: 1996
Продолжительность: 1:30:50--Перевод: Профессиональный (полное дублирование)
Cубтитры: Русские, английские
Оригинальная аудиодорожка: английский--Режиссер:
Гари Труздейл / Gary Trousdale, Кирк Уайз / Kirk Wise
В ролях:
Джейсон Александр (Hugo, озвучка), Мэри Кэй Бергман (Quasimodo's Mother, озвучка), Кори Бертон (Brutish Guard, озвучка), Билл Фагербакки (Oafish Guard, озвучка), Том Халс (Quasimodo, озвучка), Тони Джей (Frollo, озвучка), Пол Кандел (Clopin, озвучка), Чарльз Кимбро (Victor, озвучка), Кевин Клайн (Phoebus, озвучка), Хайди Молленхауер (Esmeralda, исполнитель песни), Деми Мур (Esmeralda, озвучка), Патрик Пинни (Guards, Gypsies, озвучка)--Описание:Юная цыганка Эсмеральда зарабатывает на жизнь танцами. У нее есть друзья, но недоброжелатели столь могущественны, что Эсмеральда попадает в тюрьму. Звонарь Квазимодо устраивает девушке побег. А потом спасает ее, когда ослепленный ненавистью епископ Фролло пытается сам расправиться с ней. Этот мультфильм, в отличии от известного романа В. Гюго, кончается счастливо для главных героев.-- --Тип релиза: Blu-ray 1080p
Контейнер: BDMV
Video: MPEG-4 AVC Video 26813 kbps 1080p / 23.976 fps / 16:9 / High Profile 4.1
Audio: DTS-HD Master Audio English 4829 kbps 5.1 / 48 kHz / 4829 kbps / 24-bit (DTS Core: 5.1 / 48 kHz / 1509 kbps / 24-bit)
Audio: Dolby Digital Audio English 320 kbps 2.0 / 48 kHz / 320 kbps / Dolby Surround
Audio: Dolby Digital Audio French 640 kbps 5.1 / 48 kHz / 640 kbps
Audio: Dolby Digital Audio Spanish 640 kbps 5.1 / 48 kHz / 640 kbps
Audio: Dolby Digital Audio Portuguese 320 kbps 2.0 / 48 kHz / 320 kbps / Dolby Surround
Audio: Dolby Digital Audio Russian 320 kbps 2.0 / 48 kHz / 320 kbps / Dolby Surround
Audio: Dolby Digital Audio English 192 kbps 2.0 / 48 kHz / 192 kbps / DN -4dB-- Горбун из Нотр Дама 2
The Hunchback of Notre Dame II
-«Miracles Do Happen and True Love Can Come True»-Страна: США
Жанр: мультфильм, приключения, семейный
Год выпуска: 2002
Продолжительность: 1:05:49.987--Перевод: Профессиональный (полное дублирование)
Cубтитры: Русские, английские
Оригинальная аудиодорожка: английский--Режиссер:
Брэдли Рэймонд / Bradley Raymond
В ролях:
Джейсон Александр (Hugo, озвучка), Дженнифер Лав Хьюитт (Madellaine, озвучка), Том Халс (Quasimodo, озвучка), Пол Кандел (Clopin, озвучка), Чарльз Кимбро (Victor, озвучка), Кевин Клайн (Phoebus, озвучка), Майкл МакКин (Sarousch, озвучка), Деми Мур (Esmeralda, озвучка), Хэйли Джоэл Осмент (Zephyr, озвучка), Джейн Уизерс (Laverne, озвучка), Джим Каммингс (Archdeacon, озвучка), Джо Лала (Guard #1, озвучка)--Описание:Продолжение приключений Диснеевского Квазимодо... Теперь, когда нет Фролло, Квазимодо звонит в колокол с помощью своего нового друга - малыша Зефира, сына Эсмеральды и Фоэбуса, но когда Квазимодо случайно заходит в странствующий цирк злого волшебника Саруша, он влюбляется в его ассистентку Мэделин, но жадный Саруш, заставляет Мэделин обманув Квазимодо, помочь украсть знаменитый колокол из Нотр-Даммского собора, который нужен ему, чтобы при помощи волшебства добиться могущества...-- --Тип релиза: Blu-ray 1080p
Контейнер: BDMV
Video: MPEG-4 AVC Video 26813 kbps 1080p / 23.976 fps / 16:9 / High Profile 4.1
Audio: DTS-HD Master Audio English 4829 kbps 5.1 / 48 kHz / 4829 kbps / 24-bit (DTS Core: 5.1 / 48 kHz / 1509 kbps / 24-bit)
Audio: Dolby Digital Audio English 320 kbps 2.0 / 48 kHz / 320 kbps / Dolby Surround
Audio: Dolby Digital Audio French 640 kbps 5.1 / 48 kHz / 640 kbps
Audio: Dolby Digital Audio Spanish 640 kbps 5.1 / 48 kHz / 640 kbps
Audio: Dolby Digital Audio Portuguese 320 kbps 2.0 / 48 kHz / 320 kbps / Dolby Surround
Audio: Dolby Digital Audio Russian 320 kbps 2.0 / 48 kHz / 320 kbps / Dolby Surround
Audio: Dolby Digital Audio English 192 kbps 2.0 / 48 kHz / 192 kbps / DN -4dBРелиз от:

------------

На диске

Русскоязычный перевод отсутствует
The Hunchback of Notre Dame
• Audio Commentary: Producer Don Hahn and directors Kirk Wise and Gary Trousdale deliver an extensive, low-key overview of the production and discuss the adaptation, development and execution of the story, as well as the film's voice casting, characters, animation, songs and other key elements.
• The Making of The Hunchback of Notre Dame (SD, 28 minutes): Jason Alexander hosts this corny but nevertheless informative DVD-era trip behind the scenes of Disney's 34th animated feature, from its place in the Disney canon to creating the characters, blending talent and technology, the music and more.
• Multi-Language Reel (SD, 3 minutes): "A Guy Like You," around the world.
• Sneak Peeks and Trailers (HD, 9 minutes): The Little Mermaid, Monsters University, Planes, Mulan, Return to Never Land, the next, as yet-untitled Tinker Bell movie, Super Buddies and Epic Mickey 2.
The Hunchback of Notre Dame II - 1/5
• Behind the Scenes (SD, 5 minutes): Jennifer Love Hewitt is highlighted in this Disney Channel promo.
• A Gargoyle's Life (SD, 3 minutes): "It's Not Easy Being a Gargoyle" in this slapped together short.

Скриншоты




BDinfo

DISC INFO:
Disc Title: THE_HUNCHBACK_OF_NOTRE_DAME_HDCLUB
Disc Size: 47,098,773,585 bytes
Protection: AACS
BD-Java: Yes
BDInfo: 0.5.8
PLAYLIST REPORT:
Name: 00100.MPLS
Length: 1:30:50.069 (h:m:s.ms)
Size: 25,163,077,632 bytes
Total Bitrate: 36.94 Mbps
VIDEO:
Codec Bitrate Description
----- ------- -----------
MPEG-4 AVC Video 26813 kbps 1080p / 23.976 fps / 16:9 / High Profile 4.1
AUDIO:
Codec Language Bitrate Description
----- -------- ------- -----------
DTS-HD Master Audio English 4829 kbps 5.1 / 48 kHz / 4829 kbps / 24-bit (DTS Core: 5.1 / 48 kHz / 1509 kbps / 24-bit)
Dolby Digital Audio English 320 kbps 2.0 / 48 kHz / 320 kbps / Dolby Surround
Dolby Digital Audio French 640 kbps 5.1 / 48 kHz / 640 kbps
Dolby Digital Audio Spanish 640 kbps 5.1 / 48 kHz / 640 kbps
Dolby Digital Audio Portuguese 320 kbps 2.0 / 48 kHz / 320 kbps / Dolby Surround
Dolby Digital Audio Russian 320 kbps 2.0 / 48 kHz / 320 kbps / Dolby Surround
Dolby Digital Audio English 192 kbps 2.0 / 48 kHz / 192 kbps / DN -4dB
SUBTITLES:
Codec Language Bitrate Description
----- -------- ------- -----------
Presentation Graphics French 35.815 kbps
Presentation Graphics Spanish 34.782 kbps
Presentation Graphics Portuguese 30.609 kbps
Presentation Graphics Russian 35.298 kbps
Presentation Graphics English 44.610 kbps
Presentation Graphics English 35.916 kbps
Presentation Graphics English 87.916 kbps
Presentation Graphics English 80.738 kbps
Presentation Graphics French 73.895 kbps
Presentation Graphics Portuguese 73.939 kbps
Presentation Graphics Russian 81.132 kbps
Presentation Graphics Spanish 70.680 kbps
FILES:
Name Time In Length Size Total Bitrate
---- ------- ------ ---- -------------
00003.M2TS 0:00:00.000 1:30:49.569 25,160,460,288 36,936
00002.M2TS 1:30:49.569 0:00:00.500 2,617,344 41,836
PLAYLIST REPORT:
Name: 00101.MPLS
Length: 1:05:49.987 (h:m:s.ms)
Size: 17,528,131,584 bytes
Total Bitrate: 35.50 Mbps
VIDEO:
Codec Bitrate Description
----- ------- -----------
MPEG-4 AVC Video 26801 kbps 1080p / 23.976 fps / 16:9 / High Profile 4.1
AUDIO:
Codec Language Bitrate Description
----- -------- ------- -----------
DTS-HD Master Audio English 3919 kbps 5.1 / 48 kHz / 3919 kbps / 24-bit (DTS Core: 5.1 / 48 kHz / 1509 kbps / 24-bit)
Dolby Digital Audio English 320 kbps 2.0 / 48 kHz / 320 kbps / Dolby Surround
Dolby Digital Audio French 640 kbps 5.1 / 48 kHz / 640 kbps
Dolby Digital Audio Spanish 640 kbps 5.1 / 48 kHz / 640 kbps
Dolby Digital Audio Russian 640 kbps 5.1 / 48 kHz / 640 kbps
Dolby Digital Audio Portuguese 320 kbps 2.0 / 48 kHz / 320 kbps / Dolby Surround
SUBTITLES:
Codec Language Bitrate Description
----- -------- ------- -----------
Presentation Graphics English 34.145 kbps
Presentation Graphics English 27.804 kbps
Presentation Graphics French 28.725 kbps
Presentation Graphics Spanish 29.811 kbps
Presentation Graphics Portuguese 28.398 kbps
Presentation Graphics Russian 26.975 kbps
FILES:
Name Time In Length Size Total Bitrate
---- ------- ------ ---- -------------
00043.M2TS 0:00:00.000 1:05:49.487 17,525,514,240 35,499
00002.M2TS 1:05:49.487 0:00:00.500 2,617,344 41,836

[Цитировать]



Показать сообщения:    

Текущее время: 04-Дек 13:10

Часовой пояс: UTC + 3


Вы не можете начинать темы
Вы не можете отвечать на сообщения
Вы не можете редактировать свои сообщения
Вы не можете удалять свои сообщения
Вы не можете голосовать в опросах
Вы не можете прикреплять файлы к сообщениям
Вы не можете скачивать файлы

!ВНИМАНИЕ!
Сайт не предоставляет электронные версии произведений, а занимается лишь коллекционированием и каталогизацией ссылок, присылаемых и публикуемых на форуме нашими читателями. Если вы являетесь правообладателем какого-либо представленного материала и не желаете, чтобы ссылка на него находилась в нашем каталоге, свяжитесь с нами, и мы незамедлительно удалим ее. Файлы для обмена на трекере предоставлены пользователями сайта, и администрация не несет ответственности за их содержание. Просьба не заливать файлы, защищенные авторскими правами, а также файлы нелегального содержания!