[ Сегодня идет свободное скачивание без начисления Download ]


Статистика раздачи
Нет
 
   
 
Top  
 
 
Белоснежка и семь гномов / Snow White and the Seven Dwarfs- Страна: США
Жанр: мультфильм, мюзикл, фэнтези, мелодрама, семейный
Продолжительность: 01:23:11
Год выпуска: 1937
Перевод 01: Профессиональный (дублированный) | BD CEE
Перевод 02: Авторский (одноголосый закадровый) | Максим Ошурков
Перевод 03: Авторский (одноголосый закадровый) | Василий Горчаков (поздний)
Перевод 04: Авторский (одноголосый закадровый) | Василий Горчаков (ранний)
Перевод 05: Авторский (одноголосый закадровый) | Юрий Живов
Перевод 06: Авторский (одноголосый закадровый) | Михаил Иванов | VHS
Перевод 07: Авторский (одноголосый закадровый) | Александр Марченко | VHS
Перевод 08: Авторский (одноголосый закадровый) | Антон Алексеев | VHS
Перевод 09: Авторский (одноголосый закадровый) | Леша-прапорщик | VHS
Перевод 10: Авторский (одноголосый закадровый) | неизвестный | VHS
Перевод 11: Профессиональный (многоголосый закадровый)
Перевод 12: Профессиональный (многоголосый закадровый) New Dream Media / Позитив-Мультимедиа
Перевод 13: Профессиональный (многоголосый закадровый) Инфо-фильм
Перевод 14: Профессиональный (многоголосый закадровый) FDV
Перевод 15: Профессиональный (многоголосый закадровый) Мьюзик-трейд
Русские субтитры: есть
-Режиссёр: Дэвид Хэнд / David Hand
Роли озвучивали: Рой Этвелл, Стюарт Бьюкэнэн, Адриана Каселотти, Холл Джонсон Шор, Эдди Коллинз, Пинто Колвиг, Мэрион Дарлингтон, Билли Гилберт, Отис Хэрлан, Люсиль Ла Верн
- | -Описание: Первый полнометражный анимационный фильм Уолта Диснея "Белоснежка и семь гномов", получивший многочисленные награды и премии, завоевавший сердца нескольких поколений зрителей и по праву вошедший в новую Бриллиантовую Коллекцию Disney!
Именно с этого легендарного фильма началась великая традиция полнометражного анимационного киностудии Disney, которая каждый год дарит нам незабываемые анимационные шедевры.
"Белоснежка и семь гномов" - это экранизация знаменитой немецкой сказки братьев Гримм о Белоснежке, жившей в замке со злой мачехой-королевой, которая однажды решила погубить прелестную падчерицу, узнав от волшебного зеркальца, что Белоснежка - самая прекрасная девушка на свете. Но Белоснежка не погибла, а наоборот, встретила в лесу настоящих друзей - забавных семерых гномов: Дока, Ворчуна, Весельчака, Тихоню, Чихуна, Соню и Простака...
Насладитесь вечно молодой классикой от Disney в высоком качестве, которое стало возможным благодаря новым цифровым технологиям, а также уникальными дополнительными материалами, доступными только в этом 2-дисковом издании из Платиновой Коллекции Disney.
-Доп. информация:
  • Звуковые дорожки №2,3,5 (Ошурков, Горчаков (поздний), Живов) получены путем наложения чистых голосов на центральный канал декодированной оригинальной DTS-HD MA дорожки;
  • Спасибо multmir и GVR232 за любезно предоставленные чистые голоса: М.Ошуркова, В.Горчакова (поздний) и Ю.Живова;
  • Спасибо bora86bora за оцифровку VHS с переводами: М.Иванов, А.Марченко;
    - Был удивлен, но скорее всего Иванов переводил с английского, т.к. в мультфильме встречаются фрагменты с его переводом, где на подложке еле слышно английская речь в перемешку с итальянской;
    - Перевод Марченко изначально был наложен на немного "зажеванную" Eng дорожку с VHS, т.к. есть несколько моментов, где слова на английском просто проглатываются посередине фразы или начинаются не с начала (было проверенно на нескольких оцифровках);

  • Спасибо серый75 за оцифровку VHS с переводом А.Алексеева;
  • Спасибо multmir за оцифровку VHS с переводом неизвестного и за Проф перевода от "Инфо-фильм";
  • Спасибо Nekontroliruemij_devil за оцифровку VHS с переводом Леши-прапорщика;
  • Спасибо master-pepper и alenavova за Проф перевода от "FDV";
  • Звуковая дорожка №11 получены путем наложения выделенных инвертированием голосов на центральный канал декодированной оригинальной DTS-HD MA дорожки;
  • Звуковые дорожки с многоголосками (дорожки №11,15) текстом перевода не отличаются. Однако, начитаны разными коллективами для разных DVD изданий;
  • Звуковые дорожки №16,17 взяты с Гуртом;
  • Огромная благодарность за помощь в создании релиза - xfiles;
  • Работа со звуком - bora86bora.
-Семпл: скачать-Качество: BDRemux 1080p (Исходник: BD CEE)
Формат: MKV
Видео: 1920x1080p 23.976 fps, 16:9, MPEG-4 AVC Video ~24072 kbps
Аудио #01 Русский, 48.0 KHz, AC3, 6 ch, 640 kbps - Дубляж | BD CEE
Аудио #02 Русский, 48.0 KHz, DTS-HD MA, 8 ch, 3730 kbps, 24-bit (DTS Core: 5.1 / 48 kHz / 1509 kbps / 24-bit) - Одноголосый закадровый | Максим Ошурков
Аудио #03 Русский, 48.0 KHz, DTS-HD MA, 8 ch, 3731 kbps, 24-bit (DTS Core: 5.1 / 48 kHz / 1509 kbps / 24-bit) - Одноголосый закадровый | Василий Горчаков (поздний)
Аудио #04 Русский, 48.0 KHz, DTS, 6 ch, 768 kbps - Одноголосый закадровый | Василий Горчаков (ранний)
Аудио #05 Русский, 48.0 KHz, DTS-HD MA, 8 ch, 3732 kbps, 24-bit (DTS Core: 5.1 / 48 kHz / 1509 kbps / 24-bit) - Одноголосый закадровый | Юрий Живов
Аудио #06 Русский, 48.0 KHz, AC3, 1 ch, 192 kbps - Одноголосый закадровый | Михаил Иванов | VHS
Аудио #07 Русский, 48.0 KHz, AC3, 1 ch, 192 kbps - Одноголосый закадровый | Александр Марченко | VHS
Аудио #08 Русский, 48.0 KHz, AC3, 1 ch, 192 kbps - Одноголосый закадровый | Антон Алексеев | VHS
Аудио #09 Русский, 48.0 KHz, AC3, 1 ch, 192 kbps - Одноголосый закадровый | Леша-прапорщик | VHS
Аудио #10 Русский, 48.0 KHz, AC3, 1 ch, 192 kbps - Одноголосый закадровый | неизвестный | VHS
Аудио #11 Русский, 48.0 KHz, DTS-HD MA, 8 ch, 3730 kbps, 24-bit (DTS Core: 5.1 / 48 kHz / 1509 kbps / 24-bit) - Многоголосый закадровый
Аудио #12 Русский, 48.0 KHz, AC3, 6 ch, 384 kbps - Многоголосый закадровый | "New Dream Media" / "Позитив-Мультимедиа"
Аудио #13 Русский, 48.0 KHz, AC3, 6 ch, 448 kbps - Многоголосый закадровый | "Инфо-фильм"
Аудио #14 Русский, 48.0 KHz, AC3, 6 ch, 384 kbps - Многоголосый закадровый | "FDV"
Аудио #15 Русский, 48.0 KHz, AC3, 2 ch, 192 kbps - Многоголосый закадровый | "Мьюзик-трейд"
Аудио #16 Українська, 48.0 KHz, AC3, 2 ch, 192 kbps - Дубляж
Аудио #17 Українська, 48.0 KHz, AC3, 1 ch, 192 kbps - Двухголосый закадровый | "Так Треба Продакшн" | VHS
Аудио #18 English, 48.0 KHz, DTS-HD MA, 8 ch, 3733 kbps, 24-bit (DTS Core: 5.1 / 48 kHz / 1509 kbps / 24-bit)
Аудио #19 English, 48.0 KHz, AC3, 2 ch, 192 kbps - Commentary
Субтитры: Русские (forced), Русские, Русские (комментарии), Українські, Українські (комментарии), English, English (SDH)

MediaInfo

ОбщееУникальный идентификатор : 230767665461376941885920523475338950446 (0xAD9C3C578BADF25586245226C1D0772E)Полное имя : ...\Snow.White.and.the.Seven.Dwarfs.1937.1080p.BDRemux.x264.rutracker.mkvФормат : MatroskaВерсия формата : Version 4 / Version 2Размер файла : 27,8 ГбайтПродолжительность : 1 ч. 23 м.Режим общего битрейта : ПеременныйОбщий поток : 47,8 Мбит/секНазвание фильма : Snow White and the Seven Dwarfs (1937) BDRemux 1080pДата кодирования : UTC 2013-03-21 17:48:13Программа кодирования : mkvmerge v6.1.0 ('Old Devil') built on Mar 2 2013 14:32:37Библиотека кодирования : libebml v1.3.0 + libmatroska v1.4.0
ВидеоИдентификатор : 1Формат : AVCФормат/Информация : Advanced Video CodecПрофиль формата : [email protected] CABAC формата : ДаПараметр ReFrames формата : 4 кадраРежим смешивания : Container [email protected] кодека : V_MPEG4/ISO/AVCПродолжительность : 1 ч. 23 м.Вид битрейта : ПеременныйМаксимальный битрейт : 34,4 Мбит/секШирина : 1920 пикселейВысота : 1080 пикселейСоотношение сторон : 16:9Режим частоты кадров : ПостоянныйЧастота кадров : 23,976 кадра/секЦветовое пространство : YUVСубдискретизация насыщенности : 4:2:0Битовая глубина : 8 битТип развёртки : ПрогрессивнаяЗаголовок : BDRemux 1080p / bora86bora / РГ Мультфильмы / rutracker.orgЯзык : EnglishDefault : ДаForced : НетОсновные цвета : BT.709Характеристики трансфера : BT.709Коэффициенты матрицы : BT.709
Аудио #1Идентификатор : 2Формат : AC-3Формат/Информация : Audio Coding 3Расширение режима : CM (complete main)Параметр Endianness формата : BigИдентификатор кодека : A_AC3Продолжительность : 1 ч. 23 м.Вид битрейта : ПостоянныйБитрейт : 640 Кбит/секКаналы : 6 каналовРасположение каналов : Front: L C R, Side: L R, LFEЧастота : 48,0 КГцБитовая глубина : 16 битМетод сжатия : С потерямиРазмер потока : 381 Мбайт (1%)Заголовок : Дубляж | BD CEEЯзык : RussianDefault : ДаForced : Нет
Аудио #2Идентификатор : 3Формат : DTSФормат/Информация : Digital Theater SystemsПрофиль формата : MA / CoreРежим : 16Параметр Endianness формата : BigИдентификатор кодека : A_DTSПродолжительность : 1 ч. 23 м.Вид битрейта : ПеременныйБитрейт : Неизвестно / 1509 Кбит/секКаналы : 8 каналов / 6 каналовРасположение каналов : Front: L C R, Side: L R, Back: L R, LFE / Front: L C R, Side: L R, LFEЧастота : 48,0 КГцБитовая глубина : 24 битМетод сжатия : Без потерь / LossyЗаголовок : Одноголосый закадровый | Максим ОшурковЯзык : RussianDefault : НетForced : Нет
Аудио #3Идентификатор : 4Формат : DTSФормат/Информация : Digital Theater SystemsПрофиль формата : MA / CoreРежим : 16Параметр Endianness формата : BigИдентификатор кодека : A_DTSПродолжительность : 1 ч. 23 м.Вид битрейта : ПеременныйБитрейт : Неизвестно / 1509 Кбит/секКаналы : 8 каналов / 6 каналовРасположение каналов : Front: L C R, Side: L R, Back: L R, LFE / Front: L C R, Side: L R, LFEЧастота : 48,0 КГцБитовая глубина : 24 битМетод сжатия : Без потерь / LossyЗаголовок : Одноголосый закадровый | Василий Горчаков (поздний)Язык : RussianDefault : НетForced : Нет
Аудио #4Идентификатор : 5Формат : DTSФормат/Информация : Digital Theater SystemsРежим : 16Параметр Endianness формата : BigИдентификатор кодека : A_DTSПродолжительность : 1 ч. 23 м.Вид битрейта : ПостоянныйБитрейт : 1510 Кбит/секКаналы : 6 каналовРасположение каналов : Front: L C R, Side: L R, LFEЧастота : 48,0 КГцБитовая глубина : 24 битМетод сжатия : С потерямиРазмер потока : 898 Мбайт (3%)Заголовок : Одноголосый закадровый | Василий Горчаков (ранний)Язык : RussianDefault : НетForced : Нет
Аудио #5Идентификатор : 6Формат : DTSФормат/Информация : Digital Theater SystemsПрофиль формата : MA / CoreРежим : 16Параметр Endianness формата : BigИдентификатор кодека : A_DTSПродолжительность : 1 ч. 23 м.Вид битрейта : ПеременныйБитрейт : Неизвестно / 1509 Кбит/секКаналы : 8 каналов / 6 каналовРасположение каналов : Front: L C R, Side: L R, Back: L R, LFE / Front: L C R, Side: L R, LFEЧастота : 48,0 КГцБитовая глубина : 24 битМетод сжатия : Без потерь / LossyЗаголовок : Одноголосый закадровый | Юрий ЖивовЯзык : RussianDefault : НетForced : Нет
Аудио #6Идентификатор : 7Формат : AC-3Формат/Информация : Audio Coding 3Расширение режима : CM (complete main)Параметр Endianness формата : BigИдентификатор кодека : A_AC3Продолжительность : 1 ч. 23 м.Вид битрейта : ПостоянныйБитрейт : 192 Кбит/секКаналы : 1 каналРасположение каналов : Front: CЧастота : 48,0 КГцБитовая глубина : 16 битМетод сжатия : С потерямиРазмер потока : 114 Мбайт (0%)Заголовок : Одноголосый закадровый | Михаил Иванов | VHSЯзык : RussianDefault : НетForced : Нет
Аудио #7Идентификатор : 8Формат : AC-3Формат/Информация : Audio Coding 3Расширение режима : CM (complete main)Параметр Endianness формата : BigИдентификатор кодека : A_AC3Продолжительность : 1 ч. 23 м.Вид битрейта : ПостоянныйБитрейт : 192 Кбит/секКаналы : 1 каналРасположение каналов : Front: CЧастота : 48,0 КГцБитовая глубина : 16 битМетод сжатия : С потерямиРазмер потока : 114 Мбайт (0%)Заголовок : Одноголосый закадровый | Александр Марченко | VHSЯзык : RussianDefault : НетForced : Нет
Аудио #8Идентификатор : 9Формат : AC-3Формат/Информация : Audio Coding 3Расширение режима : CM (complete main)Параметр Endianness формата : BigИдентификатор кодека : A_AC3Продолжительность : 1 ч. 23 м.Вид битрейта : ПостоянныйБитрейт : 192 Кбит/секКаналы : 1 каналРасположение каналов : Front: CЧастота : 48,0 КГцБитовая глубина : 16 битМетод сжатия : С потерямиРазмер потока : 114 Мбайт (0%)Заголовок : Одноголосый закадровый | Антон Алексеев | VHSЯзык : RussianDefault : НетForced : Нет
Аудио #9Идентификатор : 10Формат : AC-3Формат/Информация : Audio Coding 3Расширение режима : CM (complete main)Параметр Endianness формата : BigИдентификатор кодека : A_AC3Продолжительность : 1 ч. 23 м.Вид битрейта : ПостоянныйБитрейт : 192 Кбит/секКаналы : 1 каналРасположение каналов : Front: CЧастота : 48,0 КГцБитовая глубина : 16 битМетод сжатия : С потерямиРазмер потока : 114 Мбайт (0%)Заголовок : Одноголосый закадровый | Лёша-прапорщик | VHSЯзык : RussianDefault : НетForced : Нет
Аудио #10Идентификатор : 11Формат : AC-3Формат/Информация : Audio Coding 3Расширение режима : CM (complete main)Параметр Endianness формата : BigИдентификатор кодека : A_AC3Продолжительность : 1 ч. 23 м.Вид битрейта : ПостоянныйБитрейт : 192 Кбит/секКаналы : 1 каналРасположение каналов : Front: CЧастота : 48,0 КГцБитовая глубина : 16 битМетод сжатия : С потерямиРазмер потока : 114 Мбайт (0%)Заголовок : Одноголосый закадровый | неизвестный | VHSЯзык : RussianDefault : НетForced : Нет
Аудио #11Идентификатор : 12Формат : DTSФормат/Информация : Digital Theater SystemsПрофиль формата : MA / CoreРежим : 16Параметр Endianness формата : BigИдентификатор кодека : A_DTSПродолжительность : 1 ч. 23 м.Вид битрейта : ПеременныйБитрейт : Неизвестно / 1509 Кбит/секКаналы : 8 каналов / 6 каналовРасположение каналов : Front: L C R, Side: L R, Back: L R, LFE / Front: L C R, Side: L R, LFEЧастота : 48,0 КГцБитовая глубина : 24 битМетод сжатия : Без потерь / LossyЗаголовок : Многоголосый закадровыйЯзык : RussianDefault : НетForced : Нет
Аудио #12Идентификатор : 13Формат : AC-3Формат/Информация : Audio Coding 3Расширение режима : CM (complete main)Параметр Endianness формата : BigИдентификатор кодека : A_AC3Продолжительность : 1 ч. 23 м.Вид битрейта : ПостоянныйБитрейт : 384 Кбит/секКаналы : 6 каналовРасположение каналов : Front: L C R, Side: L R, LFEЧастота : 48,0 КГцБитовая глубина : 16 битМетод сжатия : С потерямиРазмер потока : 228 Мбайт (1%)Заголовок : Многоголосый закадровый | New Dream Media / Позитив-МультимедиаЯзык : RussianDefault : НетForced : Нет
Аудио #13Идентификатор : 14Формат : AC-3Формат/Информация : Audio Coding 3Расширение режима : CM (complete main)Параметр Endianness формата : BigИдентификатор кодека : A_AC3Продолжительность : 1 ч. 23 м.Вид битрейта : ПостоянныйБитрейт : 448 Кбит/секКаналы : 6 каналовРасположение каналов : Front: L C R, Side: L R, LFEЧастота : 48,0 КГцБитовая глубина : 16 битМетод сжатия : С потерямиРазмер потока : 267 Мбайт (1%)Заголовок : Многоголосый закадровый | Инфо-фильмЯзык : RussianDefault : НетForced : Нет
Аудио #14Идентификатор : 15Формат : AC-3Формат/Информация : Audio Coding 3Расширение режима : CM (complete main)Параметр Endianness формата : BigИдентификатор кодека : A_AC3Продолжительность : 1 ч. 23 м.Вид битрейта : ПостоянныйБитрейт : 384 Кбит/секКаналы : 6 каналовРасположение каналов : Front: L C R, Side: L R, LFEЧастота : 48,0 КГцБитовая глубина : 16 битМетод сжатия : С потерямиРазмер потока : 228 Мбайт (1%)Заголовок : Многоголосый закадровый | FDVЯзык : RussianDefault : НетForced : Нет
Аудио #15Идентификатор : 16Формат : AC-3Формат/Информация : Audio Coding 3Расширение режима : CM (complete main)Параметр Endianness формата : BigИдентификатор кодека : A_AC3Продолжительность : 1 ч. 23 м.Вид битрейта : ПостоянныйБитрейт : 192 Кбит/секКаналы : 2 каналаРасположение каналов : Front: L RЧастота : 48,0 КГцБитовая глубина : 16 битМетод сжатия : С потерямиРазмер потока : 114 Мбайт (0%)Заголовок : Многоголосый закадровый | Мьюзик-трейдЯзык : RussianDefault : НетForced : Нет
Аудио #16Идентификатор : 17Формат : AC-3Формат/Информация : Audio Coding 3Расширение режима : CM (complete main)Параметр Endianness формата : BigИдентификатор кодека : A_AC3Продолжительность : 1 ч. 23 м.Вид битрейта : ПостоянныйБитрейт : 192 Кбит/секКаналы : 1 каналРасположение каналов : Front: CЧастота : 48,0 КГцБитовая глубина : 16 битМетод сжатия : С потерямиРазмер потока : 114 Мбайт (0%)Заголовок : ДубляжЯзык : UkrainianDefault : НетForced : Нет
Аудио #17Идентификатор : 18Формат : AC-3Формат/Информация : Audio Coding 3Расширение режима : CM (complete main)Параметр Endianness формата : BigИдентификатор кодека : A_AC3Продолжительность : 1 ч. 23 м.Вид битрейта : ПостоянныйБитрейт : 192 Кбит/секКаналы : 1 каналРасположение каналов : Front: CЧастота : 48,0 КГцБитовая глубина : 16 битМетод сжатия : С потерямиРазмер потока : 114 Мбайт (0%)Заголовок : Двухголосый закадровый | Так Треба Продакшн | VHSЯзык : UkrainianDefault : НетForced : Нет
Аудио #18Идентификатор : 19Формат : DTSФормат/Информация : Digital Theater SystemsПрофиль формата : MA / CoreРежим : 16Параметр Endianness формата : BigИдентификатор кодека : A_DTSПродолжительность : 1 ч. 23 м.Вид битрейта : ПеременныйБитрейт : Неизвестно / 1509 Кбит/секКаналы : 8 каналов / 6 каналовРасположение каналов : Front: L C R, Side: L R, Back: L R, LFE / Front: L C R, Side: L R, LFEЧастота : 48,0 КГцБитовая глубина : 24 битМетод сжатия : Без потерь / LossyЯзык : EnglishDefault : НетForced : Нет
Аудио #19Идентификатор : 20Формат : AC-3Формат/Информация : Audio Coding 3Расширение режима : CM (complete main)Параметр Endianness формата : BigИдентификатор кодека : A_AC3Продолжительность : 1 ч. 23 м.Вид битрейта : ПостоянныйБитрейт : 192 Кбит/секКаналы : 2 каналаРасположение каналов : Front: L RЧастота : 48,0 КГцБитовая глубина : 16 битМетод сжатия : С потерямиРазмер потока : 114 Мбайт (0%)Заголовок : CommentaryЯзык : EnglishDefault : НетForced : Нет
Текст #1Идентификатор : 21Формат : UTF-8Идентификатор кодека : S_TEXT/UTF8Идентификатор кодека/Информация : UTF-8 Plain TextЗаголовок : forcedЯзык : RussianDefault : НетForced : Нет
Текст #2Идентификатор : 22Формат : UTF-8Идентификатор кодека : S_TEXT/UTF8Идентификатор кодека/Информация : UTF-8 Plain TextЯзык : RussianDefault : НетForced : Нет
Текст #3Идентификатор : 23Формат : UTF-8Идентификатор кодека : S_TEXT/UTF8Идентификатор кодека/Информация : UTF-8 Plain TextЗаголовок : commentaryЯзык : RussianDefault : НетForced : Нет
Текст #4Идентификатор : 24Формат : UTF-8Идентификатор кодека : S_TEXT/UTF8Идентификатор кодека/Информация : UTF-8 Plain TextЯзык : UkrainianDefault : НетForced : Нет
Текст #5Идентификатор : 25Формат : UTF-8Идентификатор кодека : S_TEXT/UTF8Идентификатор кодека/Информация : UTF-8 Plain TextЗаголовок : commentaryЯзык : UkrainianDefault : НетForced : Нет
Текст #6Идентификатор : 26Формат : UTF-8Идентификатор кодека : S_TEXT/UTF8Идентификатор кодека/Информация : UTF-8 Plain TextЯзык : EnglishDefault : НетForced : Нет
Текст #7Идентификатор : 27Формат : UTF-8Идентификатор кодека : S_TEXT/UTF8Идентификатор кодека/Информация : UTF-8 Plain TextЗаголовок : SDHЯзык : EnglishDefault : НетForced : Нет
Меню00:00:00.000 : :01. Opening Credits00:01:22.708 : :02. Once Upon a Time00:02:11.965 : :03. The Magic Mirror00:03:35.507 : :04. "I'm Wishing"00:05:25.825 : :05. The Prince ("One Song")00:07:00.045 : :06. The Queen's Evil Plan00:09:11.426 : :07. Flight Through the Forest00:11:34.736 : :08. "With a Smile and a Song"00:14:56.979 : :09. The Dwarfs' Cottage00:17:38.349 : :10. "Whistle While You Work"00:21:25.284 : :11. "Heigh-Ho"00:24:09.156 : :12. Snow White Explores Upstairs00:25:29.820 : :13. The Dwarfs Arrive Home00:34:55.427 : :14. Snow White Wakes Up00:42:47.398 : :15. "Bluddle-Uddle-Um-Dum"00:47:49.408 : :16. Deceived00:49:15.828 : :17. The Queen Prepares A Disguise00:52:02.119 : :18. "The Dwarfs' Yodel Song"00:56:49.448 : :19. "Some Day My Prince Will Come"00:58:53.321 : :20. Settling Down for the Night01:02:38.797 : :21. The Poison Apple01:05:40.937 : :22. The Next Morning01:08:24.559 : :23. The Old Peddler Woman01:11:41.297 : :24. The Animals Warn the Dwarfs01:14:08.903 : :25. The Apple01:17:42.992 : :26. A Bedside Vigil01:20:27.614 : :27. Love's First Kiss

Скриншоты


[Цитировать]



Показать сообщения:    

Текущее время: 05-Дек 01:33

Часовой пояс: UTC + 3


Вы не можете начинать темы
Вы не можете отвечать на сообщения
Вы не можете редактировать свои сообщения
Вы не можете удалять свои сообщения
Вы не можете голосовать в опросах
Вы не можете прикреплять файлы к сообщениям
Вы не можете скачивать файлы

!ВНИМАНИЕ!
Сайт не предоставляет электронные версии произведений, а занимается лишь коллекционированием и каталогизацией ссылок, присылаемых и публикуемых на форуме нашими читателями. Если вы являетесь правообладателем какого-либо представленного материала и не желаете, чтобы ссылка на него находилась в нашем каталоге, свяжитесь с нами, и мы незамедлительно удалим ее. Файлы для обмена на трекере предоставлены пользователями сайта, и администрация не несет ответственности за их содержание. Просьба не заливать файлы, защищенные авторскими правами, а также файлы нелегального содержания!