[ Сегодня идет свободное скачивание без начисления Download ]


Статистика раздачи
Скачал: [ 1 ]
 
   
 
Top  
 
 
Новые приключения Аленушки и Еремы--Страна: Россия
Жанр: семейный, мультфильм
Год выпуска: 2009
Продолжительность: 01:14:55--Перевод : Оригинал
Cубтитры: английские--Режиссер:
Георгий Гитис
В ролях:
Антон Макарский (Ерёма, озвучка), Инна Гомес (Алёнушка, озвучка), Юлия Ковальчук (африканка, озвучка), Александр Ревва (Воевода Гордей / Ёж / Конь, озвучка), Сергей Чонишвили (Шах Рахман, озвучка), Рената Литвинова (тетка Ефросинья, озвучка), Александр Пожаров (царь Дормидонт, озвучка), Евгений Воскресенский (рыцарь Фрауэнлоб фон Цветер, озвучка), Александр Наумов (циклоп Тимур, озвучка), Наталья Щукина (царевна Вселавна, озвучка), Вячеслав Гришечкин (звездочет Фарид, озвучка), Константин Шустарев (шаман Бабучанги, озвучка)--Описание:
Итак, Ерема женится на Аленушке, Шах — на царевне Всеславе. Получив доступ к нефтяным фонтанам, царевна строит «паролет». Коварный Рыцарь похищает у царевны новый летательный аппарат, а в придачу и Шаха. Приземлившись в Африке, Рыцарь и Шах попадают в плен к людоедам… Всеслава, Аленушка, Ерема и Царь на «крылолете» отправляются на поиски. Но кто спасет героев в последнюю минуту?
-- |--Тип релиза: Blu-ray 1080i
Контейнер: BDMV
Video: MPEG-4 AVC Video / 28446 kbps / 1080i / 25 fps / 16:9 / High Profile 4.1
Audio: Russian / DTS-HD Master Audio / 5.1 / 48 kHz / 3148 kbps / 16-bit (DTS Core: 5.1 / 48 kHz / 1509 kbps / 16-bit)
Audio: Russian / Dolby Digital Audio / 5.1 / 48 kHz / 640 kbps
Audio: Russian / Dolby Digital Audio / 2.0 / 48 kHz / 256 kbps

Скриншоты


BDinfo

Disc Title: ALENA_EREMA_2_BD_BLUEBIRD
Disc Size: 24 695 324 096 bytes
Protection: AACS
BD-Java: No
BDInfo: 0.5.2
Notes:
BDINFO HOME AND REPORTS SUBMISSION:
Cinema Squid
http://www.cinemasquid.com/Tools.aspx
INCLUDES FORUMS REPORT FOR:
Unofficial Blu-ray Audio and Video Specifications Thread
http://www.avsforum.com/avs-vb/showthread.php?t=760714
http://forum.blu-ray.com/showthread.php?t=3338
********************
PLAYLIST: 00002.MPLS
********************
Total   Video
Title                                                           Codec   Length  Movie Size      Disc Size       Bitrate Bitrate Main Audio Track                          Secondary Audio Track
-----                                                           ------  ------- --------------  --------------  ------- ------- ------------------                        ---------------------
00002.MPLS                                                      AVC     1:14:55 19 280 175 552  24 695 324 096  34,31   28,45   DTS-HD Master 5.1 3148Kbps (48kHz/16-bit) DD AC3 5.1 640Kbps
DISC INFO:
Disc Title:     ALENA_EREMA_2_BD_BLUEBIRD
Disc Size:      24 695 324 096 bytes
Protection:     AACS
BD-Java:        No
BDInfo:         0.5.2
PLAYLIST REPORT:
Name:                   00002.MPLS
Size:                   19 280 175 552 bytes
Length:                 1:14:55 (h:m:s)
Total Bitrate:          34,31 Mbps
Description:
VIDEO:
Codec                   Bitrate             Description
-----                   -------             -----------
MPEG-4 AVC Video        28446 kbps          1080i / 25 fps / 16:9 / High Profile 4.1
AUDIO:
Codec                           Language        Bitrate         Description
-----                           --------        -------         -----------
DTS-HD Master Audio             Russian         3148 kbps       5.1 / 48 kHz / 3148 kbps / 16-bit (DTS Core: 5.1 / 48 kHz / 1509 kbps / 16-bit)
Dolby Digital Audio             Russian         640 kbps        5.1 / 48 kHz / 640 kbps
Dolby Digital Audio             Russian         256 kbps        2.0 / 48 kHz / 256 kbps
SUBTITLES:
Codec                           Language        Bitrate         Description
-----                           --------        -------         -----------
Presentation Graphics           English         18,861 kbps
FILES:
Name            Time In         Length          Size            Total Bitrate
----            -------         ------          ----            -------------
00004.M2TS      0:00:00.000     1:14:55.360     19 280 175 552  34 311
CHAPTERS:
Number          Time In         Length          Avg Video Rate  Max 1-Sec Rate  Max 1-Sec Time  Max 5-Sec Rate  Max 5-Sec Time  Max 10Sec Rate  Max 10Sec Time  Avg Frame Size  Max Frame Size  Max Frame Time
------          -------         ------          --------------  --------------  --------------  --------------  --------------  --------------  --------------  --------------  --------------  --------------
1               0:00:00.000     0:03:03.240     26 498 kbps     62 787 kbps     00:00:09.279    38 467 kbps     00:02:11.120    35 728 kbps     00:02:11.080    132 431 bytes   847 956 bytes   00:02:16.120
2               0:03:03.240     0:03:45.080     30 182 kbps     54 570 kbps     00:06:14.200    39 746 kbps     00:03:19.240    36 028 kbps     00:03:19.240    150 911 bytes   730 343 bytes   00:03:44.799
3               0:06:48.320     0:01:56.679     26 771 kbps     51 139 kbps     00:08:35.960    36 476 kbps     00:08:35.960    34 696 kbps     00:07:15.400    133 855 bytes   693 417 bytes   00:07:16.119
4               0:08:45.000     0:02:21.920     28 705 kbps     53 692 kbps     00:09:25.920    37 399 kbps     00:09:21.960    33 584 kbps     00:09:20.720    143 523 bytes   798 288 bytes   00:11:06.880
5               0:11:06.920     0:02:14.919     27 486 kbps     57 614 kbps     00:12:07.359    40 348 kbps     00:11:31.880    35 032 kbps     00:11:31.760    137 430 bytes   829 743 bytes   00:11:34.319
6               0:13:21.839     0:01:32.000     27 774 kbps     48 949 kbps     00:13:41.359    39 889 kbps     00:13:38.480    34 372 kbps     00:14:21.200    138 869 bytes   923 726 bytes   00:14:03.839
7               0:14:53.840     0:02:21.960     27 992 kbps     54 389 kbps     00:16:08.280    37 269 kbps     00:16:56.800    33 931 kbps     00:16:56.800    139 962 bytes   843 784 bytes   00:16:15.119
8               0:17:15.800     0:02:23.600     29 045 kbps     63 543 kbps     00:18:53.520    36 163 kbps     00:19:08.720    33 077 kbps     00:17:51.280    145 226 bytes   793 175 bytes   00:18:53.560
9               0:19:39.400     0:03:37.359     27 600 kbps     63 457 kbps     00:21:34.520    37 638 kbps     00:21:34.520    35 177 kbps     00:21:34.520    137 999 bytes   898 953 bytes   00:21:34.560
10              0:23:16.760     0:04:32.640     29 726 kbps     57 637 kbps     00:23:18.920    39 829 kbps     00:23:17.960    36 351 kbps     00:23:17.960    148 631 bytes   786 699 bytes   00:26:59.159
11              0:27:49.400     0:05:12.799     25 917 kbps     53 561 kbps     00:31:01.560    39 143 kbps     00:31:00.040    35 219 kbps     00:30:59.640    129 587 bytes   882 276 bytes   00:30:45.719
12              0:33:02.200     0:04:51.120     23 122 kbps     41 916 kbps     00:36:04.320    38 663 kbps     00:33:03.080    35 283 kbps     00:33:02.240    115 610 bytes   600 831 bytes   00:36:47.080
13              0:37:53.320     0:02:43.559     28 906 kbps     52 409 kbps     00:37:55.280    40 433 kbps     00:40:04.400    35 445 kbps     00:40:00.560    144 528 bytes   730 438 bytes   00:37:55.320
14              0:40:36.880     0:03:00.920     30 138 kbps     49 950 kbps     00:40:42.080    35 040 kbps     00:43:08.160    33 451 kbps     00:42:02.320    150 692 bytes   694 384 bytes   00:43:16.719
15              0:43:37.800     0:02:08.039     30 681 kbps     47 654 kbps     00:44:30.600    37 281 kbps     00:43:47.520    35 457 kbps     00:43:45.680    153 405 bytes   647 962 bytes   00:44:31.600
16              0:45:45.840     0:04:09.239     29 484 kbps     61 766 kbps     00:49:35.680    38 387 kbps     00:49:35.680    34 944 kbps     00:49:28.840    147 421 bytes   906 049 bytes   00:47:11.840
17              0:49:55.080     0:03:19.720     29 924 kbps     50 737 kbps     00:52:01.120    38 996 kbps     00:51:59.960    35 484 kbps     00:52:00.280    149 620 bytes   794 366 bytes   00:53:00.600
18              0:53:14.800     0:03:30.759     29 069 kbps     63 502 kbps     00:56:41.000    37 859 kbps     00:56:40.560    33 861 kbps     00:54:28.120    145 343 bytes   804 346 bytes   00:56:41.680
19              0:56:45.560     0:03:41.719     29 690 kbps     60 361 kbps     00:58:22.560    38 885 kbps     00:58:22.280    35 088 kbps     00:58:22.280    148 451 bytes   822 386 bytes   00:57:25.440
20              1:00:27.280     0:05:08.240     29 924 kbps     48 888 kbps     01:00:53.200    37 697 kbps     01:00:51.760    34 313 kbps     01:04:11.920    149 619 bytes   904 753 bytes   01:04:28.200
21              1:05:35.520     0:03:29.159     30 064 kbps     50 980 kbps     01:08:13.400    38 045 kbps     01:08:02.479    34 824 kbps     01:05:35.600    150 318 bytes   784 896 bytes   01:08:03.160
22              1:09:04.680     0:02:12.679     29 692 kbps     63 360 kbps     01:10:46.280    38 800 kbps     01:10:45.880    35 172 kbps     01:09:24.720    148 461 bytes   943 269 bytes   01:10:40.200
23              1:11:17.360     0:03:10.960     27 435 kbps     47 263 kbps     01:11:20.320    38 349 kbps     01:13:17.920    36 349 kbps     01:13:16.640    137 174 bytes   743 024 bytes   01:13:18.439
24              1:14:28.320     0:00:27.039     31 290 kbps     63 519 kbps     01:14:29.840    39 195 kbps     01:14:29.840    33 346 kbps     01:14:43.840    156 915 bytes   917 900 bytes   01:14:30.360
STREAM DIAGNOSTICS:
File            PID             Type            Codec           Language                Seconds                 Bitrate                 Bytes           Packets
----            ---             ----            -----           --------                --------------          --------------          -------------   -----
00004.M2TS      4113 (0x1011)   0x1B            AVC                                     4495,280                28 447                  15 984 525 948  86 940 001
00004.M2TS      4352 (0x1100)   0x81            AC3             rus (Russian)           4495,280                640                     359 628 800     2 107 200
00004.M2TS      4353 (0x1101)   0x81            AC3             rus (Russian)           4495,280                256                     143 851 520     842 880
00004.M2TS      4354 (0x1102)   0x86            DTS-HD MA       rus (Russian)           4495,280                3 149                   1 769 186 500   10 315 220
00004.M2TS      4608 (0x1200)   0x90            PGS             eng (English)           4495,280                19                      10 598 647      61 657
QUICK SUMMARY:
Disc Title: ALENA_EREMA_2_BD_BLUEBIRD
Disc Size: 24 695 324 096 bytes
Protection: AACS
BD-Java: No
Playlist: 00002.MPLS
Size: 19 280 175 552 bytes
Length: 1:14:55
Total Bitrate: 34,31 Mbps
Video: MPEG-4 AVC Video / 28446 kbps / 1080i / 25 fps / 16:9 / High Profile 4.1
Audio: Russian / DTS-HD Master Audio / 5.1 / 48 kHz / 3148 kbps / 16-bit (DTS Core: 5.1 / 48 kHz / 1509 kbps / 16-bit)
Audio: Russian / Dolby Digital Audio / 5.1 / 48 kHz / 640 kbps
Audio: Russian / Dolby Digital Audio / 2.0 / 48 kHz / 256 kbps
Subtitle: English / 18,861 kbps
********************
PLAYLIST: 00022.MPLS
********************
Total   Video
Title                                                           Codec   Length  Movie Size      Disc Size       Bitrate Bitrate Main Audio Track                          Secondary Audio Track
-----                                                           ------  ------- --------------  --------------  ------- ------- ------------------                        ---------------------
00022.MPLS                                                      AVC     0:31:43 2 796 025 728   24 695 324 096  11,75   10,91   DD AC3 2.0 256Kbps
DISC INFO:
Disc Title:     ALENA_EREMA_2_BD_BLUEBIRD
Disc Size:      24 695 324 096 bytes
Protection:     AACS
BD-Java:        No
BDInfo:         0.5.2
PLAYLIST REPORT:
Name:                   00022.MPLS
Size:                   2 796 025 728 bytes
Length:                 0:31:43 (h:m:s)
Total Bitrate:          11,75 Mbps
Description:
VIDEO:
Codec                   Bitrate             Description
-----                   -------             -----------
MPEG-4 AVC Video        10912 kbps          1080i / 25 fps / 16:9 / High Profile 4.1
AUDIO:
Codec                           Language        Bitrate         Description
-----                           --------        -------         -----------
Dolby Digital Audio             Russian         256 kbps        2.0 / 48 kHz / 256 kbps
FILES:
Name            Time In         Length          Size            Total Bitrate
----            -------         ------          ----            -------------
00018.M2TS      0:00:00.000     0:31:43.719     2 796 025 728   11 749
CHAPTERS:
Number          Time In         Length          Avg Video Rate  Max 1-Sec Rate  Max 1-Sec Time  Max 5-Sec Rate  Max 5-Sec Time  Max 10Sec Rate  Max 10Sec Time  Avg Frame Size  Max Frame Size  Max Frame Time
------          -------         ------          --------------  --------------  --------------  --------------  --------------  --------------  --------------  --------------  --------------  --------------
1               0:00:00.000     0:07:03.279     10 321 kbps     34 665 kbps     00:03:53.640    16 969 kbps     00:03:53.679    15 221 kbps     00:03:51.600    51 596 bytes    915 521 bytes   00:05:33.840
2               0:07:03.279     0:07:03.200     10 402 kbps     33 678 kbps     00:13:49.480    18 600 kbps     00:11:24.839    16 821 kbps     00:11:19.800    52 009 bytes    912 575 bytes   00:10:29.319
3               0:14:06.480     0:01:58.359     10 339 kbps     31 321 kbps     00:15:03.880    17 806 kbps     00:14:59.920    16 328 kbps     00:14:54.880    51 697 bytes    910 910 bytes   00:15:55.160
4               0:16:04.840     0:03:55.240     11 963 kbps     35 961 kbps     00:19:20.359    19 395 kbps     00:19:16.359    17 002 kbps     00:19:11.320    59 813 bytes    915 137 bytes   00:17:21.720
5               0:20:00.080     0:02:56.519     9 286 kbps      34 943 kbps     00:20:31.840    17 554 kbps     00:20:31.840    15 351 kbps     00:20:30.120    46 431 bytes    914 700 bytes   00:20:32.000
6               0:22:56.600     0:04:16.800     13 293 kbps     37 927 kbps     00:26:34.600    19 666 kbps     00:25:12.199    17 672 kbps     00:25:07.159    66 464 bytes    911 746 bytes   00:26:34.880
7               0:27:13.400     0:01:27.719     12 485 kbps     21 105 kbps     00:27:22.440    16 358 kbps     00:27:41.360    15 886 kbps     00:28:02.480    62 425 bytes    733 454 bytes   00:28:22.280
8               0:28:41.120     0:03:02.599     9 952 kbps      37 801 kbps     00:29:12.560    15 855 kbps     00:30:51.640    13 748 kbps     00:29:33.320    49 782 bytes    914 080 bytes   00:29:43.280
STREAM DIAGNOSTICS:
File            PID             Type            Codec           Language                Seconds                 Bitrate                 Bytes           Packets
----            ---             ----            -----           --------                --------------          --------------          -------------   -----
00018.M2TS      4113 (0x1011)   0x1B            AVC                                     1903,640                10 913                  2 596 733 328   14 141 953
00018.M2TS      4352 (0x1100)   0x81            AC3             rus (Russian)           1903,640                256                     60 918 784      356 946
QUICK SUMMARY:
Disc Title: ALENA_EREMA_2_BD_BLUEBIRD
Disc Size: 24 695 324 096 bytes
Protection: AACS
BD-Java: No
Playlist: 00022.MPLS
Size: 2 796 025 728 bytes
Length: 0:31:43
Total Bitrate: 11,75 Mbps
Video: MPEG-4 AVC Video / 10912 kbps / 1080i / 25 fps / 16:9 / High Profile 4.1
Audio: Russian / Dolby Digital Audio / 2.0 / 48 kHz / 256 kbps
********************
PLAYLIST: 00016.MPLS
********************
Total   Video
Title                                                           Codec   Length  Movie Size      Disc Size       Bitrate Bitrate Main Audio Track                          Secondary Audio Track
-----                                                           ------  ------- --------------  --------------  ------- ------- ------------------                        ---------------------
00016.MPLS                                                      AVC     0:02:00 479 963 136     24 695 324 096  32,00   29,99   DD AC3 2.0 256Kbps
DISC INFO:
Disc Title:     ALENA_EREMA_2_BD_BLUEBIRD
Disc Size:      24 695 324 096 bytes
Protection:     AACS
BD-Java:        No
BDInfo:         0.5.2
PLAYLIST REPORT:
Name:                   00016.MPLS
Size:                   479 963 136 bytes
Length:                 0:02:00 (h:m:s)
Total Bitrate:          32,00 Mbps
Description:
VIDEO:
Codec                   Bitrate             Description
-----                   -------             -----------
MPEG-4 AVC Video        29988 kbps          1080i / 25 fps / 16:9 / High Profile 4.1
AUDIO:
Codec                           Language        Bitrate         Description
-----                           --------        -------         -----------
Dolby Digital Audio             Russian         256 kbps        2.0 / 48 kHz / 256 kbps
SUBTITLES:
Codec                           Language        Bitrate         Description
-----                           --------        -------         -----------
Interactive Graphics            Russian         21,923 kbps
FILES:
Name            Time In         Length          Size            Total Bitrate
----            -------         ------          ----            -------------
00013.M2TS      0:00:00.000     0:02:00.000     479 963 136     31 998
CHAPTERS:
Number          Time In         Length          Avg Video Rate  Max 1-Sec Rate  Max 1-Sec Time  Max 5-Sec Rate  Max 5-Sec Time  Max 10Sec Rate  Max 10Sec Time  Avg Frame Size  Max Frame Size  Max Frame Time
------          -------         ------          --------------  --------------  --------------  --------------  --------------  --------------  --------------  --------------  --------------  --------------
1               0:00:00.000     0:02:00.000     29 988 kbps     44 015 kbps     00:01:06.200    37 741 kbps     00:00:47.480    36 084 kbps     00:00:43.400    149 942 bytes   663 601 bytes   00:01:07.679
STREAM DIAGNOSTICS:
File            PID             Type            Codec           Language                Seconds                 Bitrate                 Bytes           Packets
----            ---             ----            -----           --------                --------------          --------------          -------------   -----
00013.M2TS      4113 (0x1011)   0x1B            AVC                                     119,880                 30 018                  449 824 898     2 447 933
00013.M2TS      4352 (0x1100)   0x81            AC3             rus (Russian)           119,880                 484                     7 245 824       42 456
00013.M2TS      5120 (0x1400)   0x91            IGS             rus (Russian)           119,880                 22                      328 851         1 805
QUICK SUMMARY:
Disc Title: ALENA_EREMA_2_BD_BLUEBIRD
Disc Size: 24 695 324 096 bytes
Protection: AACS
BD-Java: No
Playlist: 00016.MPLS
Size: 479 963 136 bytes
Length: 0:02:00
Total Bitrate: 32,00 Mbps
Video: MPEG-4 AVC Video / 29988 kbps / 1080i / 25 fps / 16:9 / High Profile 4.1
Audio: Russian / Dolby Digital Audio / 2.0 / 48 kHz / 256 kbps
Subtitle: Russian / 21,923 kbps
********************
PLAYLIST: 00017.MPLS
********************
Total   Video
Title                                                           Codec   Length  Movie Size      Disc Size       Bitrate Bitrate Main Audio Track                          Secondary Audio Track
-----                                                           ------  ------- --------------  --------------  ------- ------- ------------------                        ---------------------
00017.MPLS                                                      AVC     0:02:00 479 748 096     24 695 324 096  31,98   29,97   DD AC3 2.0 256Kbps
DISC INFO:
Disc Title:     ALENA_EREMA_2_BD_BLUEBIRD
Disc Size:      24 695 324 096 bytes
Protection:     AACS
BD-Java:        No
BDInfo:         0.5.2
PLAYLIST REPORT:
Name:                   00017.MPLS
Size:                   479 748 096 bytes
Length:                 0:02:00 (h:m:s)
Total Bitrate:          31,98 Mbps
Description:
VIDEO:
Codec                   Bitrate             Description
-----                   -------             -----------
MPEG-4 AVC Video        29974 kbps          1080i / 25 fps / 16:9 / High Profile 4.1
AUDIO:
Codec                           Language        Bitrate         Description
-----                           --------        -------         -----------
Dolby Digital Audio             Russian         256 kbps        2.0 / 48 kHz / 256 kbps
SUBTITLES:
Codec                           Language        Bitrate         Description
-----                           --------        -------         -----------
Interactive Graphics            Russian         22,075 kbps
FILES:
Name            Time In         Length          Size            Total Bitrate
----            -------         ------          ----            -------------
00014.M2TS      0:00:00.000     0:02:00.000     479 748 096     31 983
CHAPTERS:
Number          Time In         Length          Avg Video Rate  Max 1-Sec Rate  Max 1-Sec Time  Max 5-Sec Rate  Max 5-Sec Time  Max 10Sec Rate  Max 10Sec Time  Avg Frame Size  Max Frame Size  Max Frame Time
------          -------         ------          --------------  --------------  --------------  --------------  --------------  --------------  --------------  --------------  --------------  --------------
1               0:00:00.000     0:02:00.000     29 974 kbps     40 547 kbps     00:00:10.519    36 135 kbps     00:00:10.399    34 428 kbps     00:00:05.360    149 870 bytes   660 584 bytes   00:01:16.799
STREAM DIAGNOSTICS:
File            PID             Type            Codec           Language                Seconds                 Bitrate                 Bytes           Packets
----            ---             ----            -----           --------                --------------          --------------          -------------   -----
00014.M2TS      4113 (0x1011)   0x1B            AVC                                     119,880                 30 004                  449 610 609     2 446 787
00014.M2TS      4352 (0x1100)   0x81            AC3             rus (Russian)           119,880                 484                     7 245 824       42 456
00014.M2TS      5120 (0x1400)   0x91            IGS             rus (Russian)           119,880                 22                      331 129         1 819
QUICK SUMMARY:
Disc Title: ALENA_EREMA_2_BD_BLUEBIRD
Disc Size: 24 695 324 096 bytes
Protection: AACS
BD-Java: No
Playlist: 00017.MPLS
Size: 479 748 096 bytes
Length: 0:02:00
Total Bitrate: 31,98 Mbps
Video: MPEG-4 AVC Video / 29974 kbps / 1080i / 25 fps / 16:9 / High Profile 4.1
Audio: Russian / Dolby Digital Audio / 2.0 / 48 kHz / 256 kbps
Subtitle: Russian / 22,075 kbps
********************
PLAYLIST: 00018.MPLS
********************
Total   Video
Title                                                           Codec   Length  Movie Size      Disc Size       Bitrate Bitrate Main Audio Track                          Secondary Audio Track
-----                                                           ------  ------- --------------  --------------  ------- ------- ------------------                        ---------------------
00018.MPLS                                                      AVC     0:02:00 479 791 104     24 695 324 096  31,99   29,98   DD AC3 2.0 256Kbps
DISC INFO:
Disc Title:     ALENA_EREMA_2_BD_BLUEBIRD
Disc Size:      24 695 324 096 bytes
Protection:     AACS
BD-Java:        No
BDInfo:         0.5.2
PLAYLIST REPORT:
Name:                   00018.MPLS
Size:                   479 791 104 bytes
Length:                 0:02:00 (h:m:s)
Total Bitrate:          31,99 Mbps
Description:
VIDEO:
Codec                   Bitrate             Description
-----                   -------             -----------
MPEG-4 AVC Video        29977 kbps          1080i / 25 fps / 16:9 / High Profile 4.1
AUDIO:
Codec                           Language        Bitrate         Description
-----                           --------        -------         -----------
Dolby Digital Audio             Russian         256 kbps        2.0 / 48 kHz / 256 kbps
SUBTITLES:
Codec                           Language        Bitrate         Description
-----                           --------        -------         -----------
Interactive Graphics            Russian         22,080 kbps
FILES:
Name            Time In         Length          Size            Total Bitrate
----            -------         ------          ----            -------------
00015.M2TS      0:00:00.000     0:02:00.000     479 791 104     31 986
CHAPTERS:
Number          Time In         Length          Avg Video Rate  Max 1-Sec Rate  Max 1-Sec Time  Max 5-Sec Rate  Max 5-Sec Time  Max 10Sec Rate  Max 10Sec Time  Avg Frame Size  Max Frame Size  Max Frame Time
------          -------         ------          --------------  --------------  --------------  --------------  --------------  --------------  --------------  --------------  --------------  --------------
1               0:00:00.000     0:02:00.000     29 977 kbps     42 261 kbps     00:01:10.519    36 982 kbps     00:01:20.600    36 252 kbps     00:01:15.480    149 883 bytes   641 939 bytes   00:01:18.720
STREAM DIAGNOSTICS:
File            PID             Type            Codec           Language                Seconds                 Bitrate                 Bytes           Packets
----            ---             ----            -----           --------                --------------          --------------          -------------   -----
00015.M2TS      4113 (0x1011)   0x1B            AVC                                     119,880                 30 007                  449 649 156     2 447 012
00015.M2TS      4352 (0x1100)   0x81            AC3             rus (Russian)           119,880                 484                     7 245 824       42 456
00015.M2TS      5120 (0x1400)   0x91            IGS             rus (Russian)           119,880                 22                      331 203         1 820
QUICK SUMMARY:
Disc Title: ALENA_EREMA_2_BD_BLUEBIRD
Disc Size: 24 695 324 096 bytes
Protection: AACS
BD-Java: No
Playlist: 00018.MPLS
Size: 479 791 104 bytes
Length: 0:02:00
Total Bitrate: 31,99 Mbps
Video: MPEG-4 AVC Video / 29977 kbps / 1080i / 25 fps / 16:9 / High Profile 4.1
Audio: Russian / Dolby Digital Audio / 2.0 / 48 kHz / 256 kbps
Subtitle: Russian / 22,080 kbps
********************
PLAYLIST: 00019.MPLS
********************
Total   Video
Title                                                           Codec   Length  Movie Size      Disc Size       Bitrate Bitrate Main Audio Track                          Secondary Audio Track
-----                                                           ------  ------- --------------  --------------  ------- ------- ------------------                        ---------------------
00019.MPLS                                                      AVC     0:02:00 479 969 280     24 695 324 096  32,00   29,99   DD AC3 2.0 256Kbps
DISC INFO:
Disc Title:     ALENA_EREMA_2_BD_BLUEBIRD
Disc Size:      24 695 324 096 bytes
Protection:     AACS
BD-Java:        No
BDInfo:         0.5.2
PLAYLIST REPORT:
Name:                   00019.MPLS
Size:                   479 969 280 bytes
Length:                 0:02:00 (h:m:s)
Total Bitrate:          32,00 Mbps
Description:
VIDEO:
Codec                   Bitrate             Description
-----                   -------             -----------
MPEG-4 AVC Video        29988 kbps          1080i / 25 fps / 16:9 / High Profile 4.1
AUDIO:
Codec                           Language        Bitrate         Description
-----                           --------        -------         -----------
Dolby Digital Audio             Russian         256 kbps        2.0 / 48 kHz / 256 kbps
SUBTITLES:
Codec                           Language        Bitrate         Description
-----                           --------        -------         -----------
Interactive Graphics            Russian         21,923 kbps
FILES:
Name            Time In         Length          Size            Total Bitrate
----            -------         ------          ----            -------------
00016.M2TS      0:00:00.000     0:02:00.000     479 969 280     31 998
CHAPTERS:
Number          Time In         Length          Avg Video Rate  Max 1-Sec Rate  Max 1-Sec Time  Max 5-Sec Rate  Max 5-Sec Time  Max 10Sec Rate  Max 10Sec Time  Avg Frame Size  Max Frame Size  Max Frame Time
------          -------         ------          --------------  --------------  --------------  --------------  --------------  --------------  --------------  --------------  --------------  --------------
1               0:00:00.000     0:02:00.000     29 988 kbps     44 028 kbps     00:00:45.080    38 308 kbps     00:00:02.360    34 500 kbps     00:00:43.160    149 940 bytes   727 705 bytes   00:00:48.480
STREAM DIAGNOSTICS:
File            PID             Type            Codec           Language                Seconds                 Bitrate                 Bytes           Packets
----            ---             ----            -----           --------                --------------          --------------          -------------   -----
00016.M2TS      4113 (0x1011)   0x1B            AVC                                     119,880                 30 018                  449 821 137     2 447 976
00016.M2TS      4352 (0x1100)   0x81            AC3             rus (Russian)           119,880                 484                     7 245 824       42 456
00016.M2TS      5120 (0x1400)   0x91            IGS             rus (Russian)           119,880                 22                      328 847         1 805
QUICK SUMMARY:
Disc Title: ALENA_EREMA_2_BD_BLUEBIRD
Disc Size: 24 695 324 096 bytes
Protection: AACS
BD-Java: No
Playlist: 00019.MPLS
Size: 479 969 280 bytes
Length: 0:02:00
Total Bitrate: 32,00 Mbps
Video: MPEG-4 AVC Video / 29988 kbps / 1080i / 25 fps / 16:9 / High Profile 4.1
Audio: Russian / Dolby Digital Audio / 2.0 / 48 kHz / 256 kbps
Subtitle: Russian / 21,923 kbps
********************
PLAYLIST: 00023.MPLS
********************
Total   Video
Title                                                           Codec   Length  Movie Size      Disc Size       Bitrate Bitrate Main Audio Track                          Secondary Audio Track
-----                                                           ------  ------- --------------  --------------  ------- ------- ------------------                        ---------------------
00023.MPLS                                                      AVC     0:01:23 300 285 888     24 695 324 096  28,68   26,71   DD AC3 5.1 640Kbps
DISC INFO:
Disc Title:     ALENA_EREMA_2_BD_BLUEBIRD
Disc Size:      24 695 324 096 bytes
Protection:     AACS
BD-Java:        No
BDInfo:         0.5.2
PLAYLIST REPORT:
Name:                   00023.MPLS
Size:                   300 285 888 bytes
Length:                 0:01:23 (h:m:s)
Total Bitrate:          28,68 Mbps
Description:
VIDEO:
Codec                   Bitrate             Description
-----                   -------             -----------
MPEG-4 AVC Video        26711 kbps          1080i / 25 fps / 16:9 / High Profile 4.1
AUDIO:
Codec                           Language        Bitrate         Description
-----                           --------        -------         -----------
Dolby Digital Audio             Russian         640 kbps        5.1 / 48 kHz / 640 kbps
FILES:
Name            Time In         Length          Size            Total Bitrate
----            -------         ------          ----            -------------
00019.M2TS      0:00:00.000     0:01:23.759     300 285 888     28 667
CHAPTERS:
Number          Time In         Length          Avg Video Rate  Max 1-Sec Rate  Max 1-Sec Time  Max 5-Sec Rate  Max 5-Sec Time  Max 10Sec Rate  Max 10Sec Time  Avg Frame Size  Max Frame Size  Max Frame Time
------          -------         ------          --------------  --------------  --------------  --------------  --------------  --------------  --------------  --------------  --------------  --------------
1               0:00:00.000     0:01:23.759     26 763 kbps     45 816 kbps     00:00:13.000    38 160 kbps     00:00:48.480    34 781 kbps     00:00:48.080    133 815 bytes   940 785 bytes   00:00:05.840
STREAM DIAGNOSTICS:
File            PID             Type            Codec           Language                Seconds                 Bitrate                 Bytes           Packets
----            ---             ----            -----           --------                --------------          --------------          -------------   -----
00019.M2TS      4113 (0x1011)   0x1B            AVC                                     83,680                  26 788                  280 207 587     1 524 131
00019.M2TS      4352 (0x1100)   0x81            AC3             rus (Russian)           83,680                  641                     6 702 080       39 270
QUICK SUMMARY:
Disc Title: ALENA_EREMA_2_BD_BLUEBIRD
Disc Size: 24 695 324 096 bytes
Protection: AACS
BD-Java: No
Playlist: 00023.MPLS
Size: 300 285 888 bytes
Length: 0:01:23
Total Bitrate: 28,68 Mbps
Video: MPEG-4 AVC Video / 26711 kbps / 1080i / 25 fps / 16:9 / High Profile 4.1
Audio: Russian / Dolby Digital Audio / 5.1 / 48 kHz / 640 kbps
********************
PLAYLIST: 00015.MPLS
********************
Total   Video
Title                                                           Codec   Length  Movie Size      Disc Size       Bitrate Bitrate Main Audio Track                          Secondary Audio Track
-----                                                           ------  ------- --------------  --------------  ------- ------- ------------------                        ---------------------
00015.MPLS                                                      AVC     0:01:16 111 303 936     24 695 324 096  11,57   10,74   DD AC3 2.0 256Kbps
DISC INFO:
Disc Title:     ALENA_EREMA_2_BD_BLUEBIRD
Disc Size:      24 695 324 096 bytes
Protection:     AACS
BD-Java:        No
BDInfo:         0.5.2
PLAYLIST REPORT:
Name:                   00015.MPLS
Size:                   111 303 936 bytes
Length:                 0:01:16 (h:m:s)
Total Bitrate:          11,57 Mbps
Description:
VIDEO:
Codec                   Bitrate             Description
-----                   -------             -----------
MPEG-4 AVC Video        10735 kbps          1080i / 25 fps / 16:9 / High Profile 4.1
AUDIO:
Codec                           Language        Bitrate         Description
-----                           --------        -------         -----------
Dolby Digital Audio             Russian         256 kbps        2.0 / 48 kHz / 256 kbps
SUBTITLES:
Codec                           Language        Bitrate         Description
-----                           --------        -------         -----------
Interactive Graphics            Russian         0,000 kbps
FILES:
Name            Time In         Length          Size            Total Bitrate
----            -------         ------          ----            -------------
00002.M2TS      0:00:00.000     0:01:16.960     111 303 936     11 564
CHAPTERS:
Number          Time In         Length          Avg Video Rate  Max 1-Sec Rate  Max 1-Sec Time  Max 5-Sec Rate  Max 5-Sec Time  Max 10Sec Rate  Max 10Sec Time  Avg Frame Size  Max Frame Size  Max Frame Time
------          -------         ------          --------------  --------------  --------------  --------------  --------------  --------------  --------------  --------------  --------------  --------------
1               0:00:00.000     0:01:16.960     10 806 kbps     18 389 kbps     00:00:00.-080   12 984 kbps     00:00:01.720    12 078 kbps     00:00:00.-079   54 030 bytes    683 024 bytes   00:00:00.919
STREAM DIAGNOSTICS:
File            PID             Type            Codec           Language                Seconds                 Bitrate                 Bytes           Packets
----            ---             ----            -----           --------                --------------          --------------          -------------   -----
00002.M2TS      4113 (0x1011)   0x1B            AVC                                     76,880                  10 817                  103 953 446     566 104
00002.M2TS      4352 (0x1100)   0x81            AC3             rus (Russian)           76,880                  256                     2 462 720       14 430
00002.M2TS      5120 (0x1400)   0x91            IGS             rus (Russian)           76,880                  7                       62 472          347
QUICK SUMMARY:
Disc Title: ALENA_EREMA_2_BD_BLUEBIRD
Disc Size: 24 695 324 096 bytes
Protection: AACS
BD-Java: No
Playlist: 00015.MPLS
Size: 111 303 936 bytes
Length: 0:01:16
Total Bitrate: 11,57 Mbps
Video: MPEG-4 AVC Video / 10735 kbps / 1080i / 25 fps / 16:9 / High Profile 4.1
Audio: Russian / Dolby Digital Audio / 2.0 / 48 kHz / 256 kbps
Subtitle: Russian / 0,000 kbps
********************
PLAYLIST: 00020.MPLS
********************
Total   Video
Title                                                           Codec   Length  Movie Size      Disc Size       Bitrate Bitrate Main Audio Track                          Secondary Audio Track
-----                                                           ------  ------- --------------  --------------  ------- ------- ------------------                        ---------------------
00020.MPLS                                                      AVC     0:01:02 63 559 680      24 695 324 096  8,12    7,42    DD AC3 2.0 256Kbps
DISC INFO:
Disc Title:     ALENA_EREMA_2_BD_BLUEBIRD
Disc Size:      24 695 324 096 bytes
Protection:     AACS
BD-Java:        No
BDInfo:         0.5.2
PLAYLIST REPORT:
Name:                   00020.MPLS
Size:                   63 559 680 bytes
Length:                 0:01:02 (h:m:s)
Total Bitrate:          8,12 Mbps
Description:
VIDEO:
Codec                   Bitrate             Description
-----                   -------             -----------
MPEG-4 AVC Video        7423 kbps           1080i / 25 fps / 16:9 / High Profile 4.1
AUDIO:
Codec                           Language        Bitrate         Description
-----                           --------        -------         -----------
Dolby Digital Audio             Russian         256 kbps        2.0 / 48 kHz / 256 kbps
SUBTITLES:
Codec                           Language        Bitrate         Description
-----                           --------        -------         -----------
Interactive Graphics            Russian         8,047 kbps
FILES:
Name            Time In         Length          Size            Total Bitrate
----            -------         ------          ----            -------------
00007.M2TS      0:00:00.000     0:01:02.639     63 559 680      8 117
CHAPTERS:
Number          Time In         Length          Avg Video Rate  Max 1-Sec Rate  Max 1-Sec Time  Max 5-Sec Rate  Max 5-Sec Time  Max 10Sec Rate  Max 10Sec Time  Avg Frame Size  Max Frame Size  Max Frame Time
------          -------         ------          --------------  --------------  --------------  --------------  --------------  --------------  --------------  --------------  --------------  --------------
1               0:00:00.000     0:01:02.639     7 423 kbps      11 179 kbps     00:00:00.480    7 906 kbps      00:00:00.120    7 673 kbps      00:00:00.120    37 115 bytes    649 242 bytes   00:01:00.480
STREAM DIAGNOSTICS:
File            PID             Type            Codec           Language                Seconds                 Bitrate                 Bytes           Packets
----            ---             ----            -----           --------                --------------          --------------          -------------   -----
00007.M2TS      4113 (0x1011)   0x1B            AVC                                     62,520                  7 437                   58 122 038      316 822
00007.M2TS      4352 (0x1100)   0x81            AC3             rus (Russian)           62,520                  256                     2 003 968       11 742
00007.M2TS      5120 (0x1400)   0x91            IGS             rus (Russian)           62,520                  8                       63 008          351
QUICK SUMMARY:
Disc Title: ALENA_EREMA_2_BD_BLUEBIRD
Disc Size: 24 695 324 096 bytes
Protection: AACS
BD-Java: No
Playlist: 00020.MPLS
Size: 63 559 680 bytes
Length: 0:01:02
Total Bitrate: 8,12 Mbps
Video: MPEG-4 AVC Video / 7423 kbps / 1080i / 25 fps / 16:9 / High Profile 4.1
Audio: Russian / Dolby Digital Audio / 2.0 / 48 kHz / 256 kbps
Subtitle: Russian / 8,047 kbps
********************
PLAYLIST: 00021.MPLS
********************
Total   Video
Title                                                           Codec   Length  Movie Size      Disc Size       Bitrate Bitrate Main Audio Track                          Secondary Audio Track
-----                                                           ------  ------- --------------  --------------  ------- ------- ------------------                        ---------------------
00021.MPLS                                                      AVC     0:01:00 76 105 728      24 695 324 096  10,15   9,37    DD AC3 2.0 256Kbps
DISC INFO:
Disc Title:     ALENA_EREMA_2_BD_BLUEBIRD
Disc Size:      24 695 324 096 bytes
Protection:     AACS
BD-Java:        No
BDInfo:         0.5.2
PLAYLIST REPORT:
Name:                   00021.MPLS
Size:                   76 105 728 bytes
Length:                 0:01:00 (h:m:s)
Total Bitrate:          10,15 Mbps
Description:
VIDEO:
Codec                   Bitrate             Description
-----                   -------             -----------
MPEG-4 AVC Video        9366 kbps           1080i / 25 fps / 16:9 / High Profile 4.1
AUDIO:
Codec                           Language        Bitrate         Description
-----                           --------        -------         -----------
Dolby Digital Audio             Russian         256 kbps        2.0 / 48 kHz / 256 kbps
SUBTITLES:
Codec                           Language        Bitrate         Description
-----                           --------        -------         -----------
Interactive Graphics            Russian         11,581 kbps
FILES:
Name            Time In         Length          Size            Total Bitrate
----            -------         ------          ----            -------------
00005.M2TS      0:00:00.000     0:01:00.000     76 105 728      10 147
CHAPTERS:
Number          Time In         Length          Avg Video Rate  Max 1-Sec Rate  Max 1-Sec Time  Max 5-Sec Rate  Max 5-Sec Time  Max 10Sec Rate  Max 10Sec Time  Avg Frame Size  Max Frame Size  Max Frame Time
------          -------         ------          --------------  --------------  --------------  --------------  --------------  --------------  --------------  --------------  --------------  --------------
1               0:00:00.000     0:01:00.000     9 366 kbps      13 842 kbps     00:00:00.480    9 890 kbps      00:00:00.120    9 606 kbps      00:00:00.120    46 832 bytes    817 414 bytes   00:00:48.240
STREAM DIAGNOSTICS:
File            PID             Type            Codec           Language                Seconds                 Bitrate                 Bytes           Packets
----            ---             ----            -----           --------                --------------          --------------          -------------   -----
00005.M2TS      4113 (0x1011)   0x1B            AVC                                     59,880                  9 385                   70 247 266      382 600
00005.M2TS      4352 (0x1100)   0x81            AC3             rus (Russian)           59,880                  257                     1 920 000       11 250
00005.M2TS      5120 (0x1400)   0x91            IGS             rus (Russian)           59,880                  12                      86 854          488
QUICK SUMMARY:
Disc Title: ALENA_EREMA_2_BD_BLUEBIRD
Disc Size: 24 695 324 096 bytes
Protection: AACS
BD-Java: No
Playlist: 00021.MPLS
Size: 76 105 728 bytes
Length: 0:01:00
Total Bitrate: 10,15 Mbps
Video: MPEG-4 AVC Video / 9366 kbps / 1080i / 25 fps / 16:9 / High Profile 4.1
Audio: Russian / Dolby Digital Audio / 2.0 / 48 kHz / 256 kbps
Subtitle: Russian / 11,581 kbps
********************
PLAYLIST: 00000.MPLS
********************
Total   Video
Title                                                           Codec   Length  Movie Size      Disc Size       Bitrate Bitrate Main Audio Track                          Secondary Audio Track
-----                                                           ------  ------- --------------  --------------  ------- ------- ------------------                        ---------------------
00000.MPLS                                                      AVC     0:00:25 54 465 408      24 695 324 096  16,86   15,61   DD AC3 5.1 640Kbps
DISC INFO:
Disc Title:     ALENA_EREMA_2_BD_BLUEBIRD
Disc Size:      24 695 324 096 bytes
Protection:     AACS
BD-Java:        No
BDInfo:         0.5.2
PLAYLIST REPORT:
Name:                   00000.MPLS
Size:                   54 465 408 bytes
Length:                 0:00:25 (h:m:s)
Total Bitrate:          16,86 Mbps
Description:
VIDEO:
Codec                   Bitrate             Description
-----                   -------             -----------
MPEG-4 AVC Video        15613 kbps          1080i / 25 fps / 16:9 / High Profile 4.1
AUDIO:
Codec                           Language        Bitrate         Description
-----                           --------        -------         -----------
Dolby Digital Audio             Russian         640 kbps        5.1 / 48 kHz / 640 kbps
FILES:
Name            Time In         Length          Size            Total Bitrate
----            -------         ------          ----            -------------
00000.M2TS      0:00:00.000     0:00:10.000     7 522 752       5 994
00017.M2TS      0:00:10.000     0:00:15.840     46 942 656      23 649
CHAPTERS:
Number          Time In         Length          Avg Video Rate  Max 1-Sec Rate  Max 1-Sec Time  Max 5-Sec Rate  Max 5-Sec Time  Max 10Sec Rate  Max 10Sec Time  Avg Frame Size  Max Frame Size  Max Frame Time
------          -------         ------          --------------  --------------  --------------  --------------  --------------  --------------  --------------  --------------  --------------  --------------
1               0:00:00.000     0:00:25.840     15 663 kbps     62 786 kbps     00:00:19.240    35 276 kbps     00:00:16.159    28 639 kbps     00:00:10.800    78 316 bytes    524 537 bytes   00:00:20.159
STREAM DIAGNOSTICS:
File            PID             Type            Codec           Language                Seconds                 Bitrate                 Bytes           Packets
----            ---             ----            -----           --------                --------------          --------------          -------------   -----
00000.M2TS      4113 (0x1011)   0x1B            AVC                                     9,920                   5 741                   7 119 027       38 856
00017.M2TS      4113 (0x1011)   0x1B            AVC                                     15,760                  22 068                  43 473 140      236 501
00017.M2TS      4352 (0x1100)   0x81            AC3             rus (Russian)           15,760                  643                     1 267 200       7 425
QUICK SUMMARY:
Disc Title: ALENA_EREMA_2_BD_BLUEBIRD
Disc Size: 24 695 324 096 bytes
Protection: AACS
BD-Java: No
Playlist: 00000.MPLS
Size: 54 465 408 bytes
Length: 0:00:25
Total Bitrate: 16,86 Mbps
Video: MPEG-4 AVC Video / 15613 kbps / 1080i / 25 fps / 16:9 / High Profile 4.1
Audio: Russian / Dolby Digital Audio / 5.1 / 48 kHz / 640 kbps

[Цитировать]



Показать сообщения:    

Текущее время: 10-Дек 08:04

Часовой пояс: UTC + 3


Вы не можете начинать темы
Вы не можете отвечать на сообщения
Вы не можете редактировать свои сообщения
Вы не можете удалять свои сообщения
Вы не можете голосовать в опросах
Вы не можете прикреплять файлы к сообщениям
Вы не можете скачивать файлы

!ВНИМАНИЕ!
Сайт не предоставляет электронные версии произведений, а занимается лишь коллекционированием и каталогизацией ссылок, присылаемых и публикуемых на форуме нашими читателями. Если вы являетесь правообладателем какого-либо представленного материала и не желаете, чтобы ссылка на него находилась в нашем каталоге, свяжитесь с нами, и мы незамедлительно удалим ее. Файлы для обмена на трекере предоставлены пользователями сайта, и администрация не несет ответственности за их содержание. Просьба не заливать файлы, защищенные авторскими правами, а также файлы нелегального содержания!