[ Сегодня идет свободное скачивание без начисления Download ]


Статистика раздачи
Нет
 
   
 
 
 
-Стервятники / Scavengers (2013) BDRip-- Русское название: Стервятники
Оригинальное название: Scavengers
Год выпуска: 2013
Производство: США | California Pictures
Жанр: Фантастика
Перевод: Одноголосый закадровый, любительский
Субтитры: Нет
Дата мировой премьеры: 21 марта 2013
Режиссер: Трэвис Заривны
Продюсер: Тайлер А. Хоуз, Стивен Исток, Брук Брайант
Актеры: Джон Ли Амес, Роурк Критчлоу, Бретт Куртз, Шон Патрик Флэнери, Дженнифер Джэлен, Луиз Линтон, Джереми Лондон, Дж.Дж. Нолан, Тайлер Поэлль, Расселл Ричардсон ...-Описание фильма:
Научно-фантастический фильм про космических искателей «ничейных» товаров, энергии и сокровищ. Когда команда под предводительством Эмерсон находит инопланетный Генератор Хаоса, их ждет неприятная встреча с бывшим партнером — злобным капитаном Джекелем.-
Продолжительность: 01:33:27
Качество видео: BDRip 1080p
Видеокодек: MPEG-4 AVC/H.264
Битрейт видео: ~8536 kbps
Размер кадра: 1920*800
Аудио #1: AC-3 (6 ch), 448 Kbps, русский
Аудио #2: DTS (6 ch), 1509 Kbps, английский
Дополнительная информация: Сохранены оригинальные чапреты

MediaInfo:

General
Unique ID                                : 213895184859628720362222107623173382451 (0xA0EAB6D2699AC6979FF0D0331E8FE133)
Complete name                            : :\\Scavengers.2013.BDRip.1080p.mkv
Format                                   : Matroska
Format version                           : Version 2
File size                                : 6.85 GiB
Duration                                 : 1h 33mn
Overall bit rate                         : 10.5 Mbps
Encoded date                             : UTC 2013-04-07 21:44:17
Writing application                      : mkvmerge v4.9.1 ('Ich will') сборка от Jul 11 2011 23:53:15
Writing library                          : libebml v1.2.1 + libmatroska v1.1.1
Video
ID                                       : 1
Format                                   : AVC
Format/Info                              : Advanced Video Codec
Format profile                           : [url=mailto:[email protected]][email protected][/url]
Format settings, CABAC                   : Yes
Format settings, ReFrames                : 5 frames
Codec ID                                 : V_MPEG4/ISO/AVC
Duration                                 : 1h 33mn
Bit rate                                 : 8 536 Kbps
Width                                    : 1 920 pixels
Height                                   : 800 pixels
Display aspect ratio                     : 2.40:1
Frame rate mode                          : Constant
Frame rate                               : 23.976 fps
Color space                              : YUV
Chroma subsampling                       : 4:2:0
Bit depth                                : 8 bits
Scan type                                : Progressive
Bits/(Pixel*Frame)                       : 0.232
Stream size                              : 5.43 GiB (79%)
Writing library                          : x264 core 130 r2273 b3065e6
Encoding settings                        : cabac=1 / ref=5 / deblock=1:0:0 / analyse=0x3:0x133 / me=umh / subme=7 / psy=1 / psy_rd=1.00:0.00 / mixed_ref=1 / me_range=16 / chroma_me=1 / trellis=1 / 8x8dct=1 / cqm=0 / deadzone=21,11 / fast_pskip=0 / chroma_qp_offset=-2 / threads=18 / lookahead_threads=3 / sliced_threads=0 / nr=0 / decimate=1 / interlaced=0 / bluray_compat=0 / constrained_intra=0 / bframes=3 / b_pyramid=2 / b_adapt=1 / b_bias=0 / direct=1 / weightb=1 / open_gop=0 / weightp=2 / keyint=240 / keyint_min=23 / scenecut=40 / intra_refresh=0 / rc_lookahead=40 / rc=2pass / mbtree=1 / bitrate=8536 / ratetol=1.0 / qcomp=0.60 / qpmin=10 / qpmax=69 / qpstep=4 / cplxblur=20.0 / qblur=0.5 / ip_ratio=1.40 / aq=1:1.00
Language                                 : English
Default                                  : Yes
Forced                                   : No
Audio #1
ID                                       : 2
Format                                   : AC-3
Format/Info                              : Audio Coding 3
Mode extension                           : CM (complete main)
Format settings, Endianness              : Big
Codec ID                                 : A_AC3
Duration                                 : 1h 33mn
Bit rate mode                            : Constant
Bit rate                                 : 448 Kbps
Channel(s)                               : 6 channels
Channel positions                        : Front: L C R, Side: L R, LFE
Sampling rate                            : 48.0 KHz
Bit depth                                : 16 bits
Compression mode                         : Lossy
Stream size                              : 299 MiB (4%)
Title                                    : L1 5.1
Language                                 : Russian
Default                                  : Yes
Forced                                   : No
Audio #2
ID                                       : 3
Format                                   : DTS
Format/Info                              : Digital Theater Systems
Mode                                     : 16
Format settings, Endianness              : Big
Codec ID                                 : A_DTS
Duration                                 : 1h 33mn
Bit rate mode                            : Constant
Bit rate                                 : 1 509 Kbps
Channel(s)                               : 6 channels
Channel positions                        : Front: L C R, Side: L R, LFE
Sampling rate                            : 48.0 KHz
Bit depth                                : 16 bits
Compression mode                         : Lossy
Stream size                              : 1 009 MiB (14%)
Language                                 : English
Default                                  : No
Forced                                   : No
Menu
00:00:00.000                             : en:00:00:00.000
00:09:21.227                             : en:00:09:21.227
00:17:40.392                             : en:00:17:40.392
00:24:23.545                             : en:00:24:23.545
00:30:41.422                             : en:00:30:41.422
00:37:09.727                             : en:00:37:09.727
00:48:46.423                             : en:00:48:46.423
00:56:11.618                             : en:00:56:11.618
01:05:18.706                             : en:01:05:18.706
01:13:52.052                             : en:01:13:52.052
01:23:25.625                             : en:01:23:25.625
01:31:07.086                             : en:01:31:07.086
Скриншоты: Время раздачи: 24/7 до 3-х скачавших

[Цитировать]



Показать сообщения:    

Текущее время: 06-Дек 19:04

Часовой пояс: UTC + 3


Вы не можете начинать темы
Вы не можете отвечать на сообщения
Вы не можете редактировать свои сообщения
Вы не можете удалять свои сообщения
Вы не можете голосовать в опросах
Вы не можете прикреплять файлы к сообщениям
Вы не можете скачивать файлы

!ВНИМАНИЕ!
Сайт не предоставляет электронные версии произведений, а занимается лишь коллекционированием и каталогизацией ссылок, присылаемых и публикуемых на форуме нашими читателями. Если вы являетесь правообладателем какого-либо представленного материала и не желаете, чтобы ссылка на него находилась в нашем каталоге, свяжитесь с нами, и мы незамедлительно удалим ее. Файлы для обмена на трекере предоставлены пользователями сайта, и администрация не несет ответственности за их содержание. Просьба не заливать файлы, защищенные авторскими правами, а также файлы нелегального содержания!