[ Сегодня идет свободное скачивание без начисления Download ]


Статистика раздачи
Нет
 
   
 
Top  
 
 
-Убить пересмешника / To Kill a Mockingbird (1962) BDRip- Русское название: Убить пересмешника
Оригинальное название: To Kill a Mockingbird
Страна: США
Производство: Universal International Pictures
Год выпуска: 1962
Жанр: Триллер, Драма, Криминал-Описание фильма:
Фильм о юристе из Алабамы, воспитывающем без матери своих двоих детей. Помимо темы расовых предрассудков на Юге, это рассказ о том, как двое детей из мира фантазий делают первые шаги в совершенно иной мир подростков, где уже формируются такие понятия, как благородство, сострадание, справедливость и неравенство.
В обстановке экономической депрессии, преисполненной фанатизма и ненависти, мудрый, мягкий, с тихой речью и великолепными манерами алабамский юрист должен защищать в суде негра, ложно обвиненного в изнасиловании.-Режиссер: Роберт Маллиган
Актеры: Грегори Пек, Джон Меджна, Фрэнк Овертон, Розмари Мерфи, Рут Уайт, Брок Питерс, Эстелль Эванс, Пол Фикс, Коллин Уилкокс Пэкстон, Джеймс Андерсон-Продолжительность: 02:09:11
Перевод: Профессиональный (полное дублирование) + Профессиональный (многоголосый, закадровый)
Оригинальная аудиодорожка: английский
Субтитры: русские, английские- -Видеокодек: MPEG-4 AVC/H.264
Битрейт видео: ~5 370 Kbps
Размер кадра: 1280x694p
Качество видео: BDRip 720p-Аудио 1: Русский AC3 Dolby Digital, 2/0 (L,R), ~192.00 kbps avg | Dub
Аудио 2: Русский AC3 Dolby Digital, 2/0 (L,R), ~192.00 kbps avg | MVO
Аудио 3: Английский DTS, 3/2 (L,C,R,l,r) + LFE ch, ~1510 kbps avg | Оригинал
Аудио 4: Английский AC3 Dolby Digital, 2/0 (L,R), ~192.00 kbps avg | Commentary
-

Знаете ли вы, что...

Фильм занимает второе место в рейтинге «наиболее выдающихся фильмов всех времен», составленном Американским киноинститутом в 2006 году.
Во время одной из начальных сцен Харпер Ли посетила съемочную площадку. Сцена возвращения Аттикуса Финча домой вызвала у Харпер Ли слезы — настолько Грегори Пек был похож на ее отца. Кстати, «Финч» — это второе имя отца Ли.
Филипп Элфорд, сыгравший Джима, не хотел идти пробоваться на роль. И лишь после того, как его мать сказала, что в таком случае он на законных основаниях сможет прогулять школу, он согласился.
Интерьер здания суда является точной копией интерьера здания суда из родного городка Харпер Ли, Монревилля (штат Алабама). Фотографы со студии «Юниверсал» специально ездили туда перед съемками.
Первоначальной кандидатурой на роль Аттикуса Финча был актер Рок Хадсон.
-

Награды и номинации:

Британская академия, 1964 год
Номинации (2):

Лучший фильм
Лучший иностранный актер (Грегори Пек)
Оскар, 1963 год
Победитель (3):

Лучшая мужская роль (Грегори Пек)
Лучший адаптированный сценарий
Лучшая работа художника (ч/б фильмы)
Номинации (5):
Лучший фильм
Лучшая женская роль второго плана (Мэри Бэдам)
Лучший режиссер (Роберт Маллиган)
Лучшая работа оператора (ч/б фильмы)
Лучший саундтрек
Золотой глобус, 1963 год
Победитель (3):

Лучшая мужская роль (драма) (Грегори Пек)
Лучший саундтрек
Лучший фильм, пропагандирующий мировое взаимопонимание
Номинации (2):
Лучший фильм (драма)
Лучший режиссер (Роберт Маллиган)
Каннский кинофестиваль, 1963 год
Победитель (1):

Приз Гари Купера
Номинации (1):
Золотая пальмовая ветвь
-

MediaInfo:

General
Complete name : O:\To.Kill.a.Mockingbird.1962.BluRay.720p.DTS.x264.mkv
Format : Matroska
File size : 6.86 GiB
Duration : 2h 9mn
Overall bit rate : 7 607 Kbps
Encoded date : UTC 2012-02-15 04:13:20
Writing application : mkvmerge v3.0.0 ('Hang up your Hang-Ups') built on Jan 6 2010 22:49:38
Writing library : libebml v0.7.9 + libmatroska v0.8.1
Video
ID : 1
Format : AVC
Format/Info : Advanced Video Codec
Format profile : High@L4.1
Format settings, CABAC : Yes
Format settings, ReFrames : 9 frames
Muxing mode : Container profile=Unknown@4.1
Codec ID : V_MPEG4/ISO/AVC
Duration : 2h 9mn
Bit rate : 5 370 Kbps
Nominal bit rate : 5 520 Kbps
Width : 1 280 pixels
Height : 694 pixels
Display aspect ratio : 16:9
Frame rate : 23.976 fps
Resolution : 8 bits
Colorimetry : 4:2:0
Scan type : Progressive
Bits/(Pixel*Frame) : 0.252
Stream size : 4.84 GiB (71%)
Writing library : x264 core 120 r2119 0637cd6
Encoding settings : cabac=1 / ref=9 / deblock=1:-3:-3 / analyse=0x3:0x113 / me=umh / subme=11 / psy=1 / psy_rd=1.05:0.10 / mixed_ref=1 / me_range=48 / chroma_me=1 / trellis=2 / 8x8dct=1 / cqm=0 / deadzone=21,11 / fast_pskip=0 / chroma_qp_offset=-2 / threads=12 / sliced_threads=0 / nr=0 / decimate=1 / interlaced=0 / bluray_compat=0 / constrained_intra=0 / bframes=6 / b_pyramid=2 / b_adapt=2 / b_bias=0 / direct=3 / weightb=1 / open_gop=0 / weightp=2 / keyint=250 / keyint_min=23 / scenecut=40 / intra_refresh=0 / rc_lookahead=60 / rc=2pass / mbtree=1 / bitrate=5520 / ratetol=1.0 / qcomp=0.70 / qpmin=0 / qpmax=69 / qpstep=4 / cplxblur=20.0 / qblur=0.5 / vbv_maxrate=40000 / vbv_bufsize=30000 / nal_hrd=none / ip_ratio=1.40 / aq=2:0.70
Language : English
Audio #1
ID : 2
Format : AC-3
Format/Info : Audio Coding 3
Codec ID : A_AC3
Duration : 2h 9mn
Bit rate mode : Constant
Bit rate : 192 Kbps
Channel(s) : 2 channels
Channel positions : L R
Sampling rate : 48.0 KHz
Stream size : 177 MiB (3%)
Title : DUB
Language : Russian
Audio #2
ID : 3
Format : AC-3
Format/Info : Audio Coding 3
Codec ID : A_AC3
Duration : 2h 9mn
Bit rate mode : Constant
Bit rate : 192 Kbps
Channel(s) : 2 channels
Channel positions : L R
Sampling rate : 48.0 KHz
Stream size : 177 MiB (3%)
Title : MVO
Language : Russian
Audio #3
ID : 6
Format : DTS
Format/Info : Digital Theater Systems
Codec ID : A_DTS
Duration : 2h 9mn
Bit rate mode : Constant
Bit rate : 1 510 Kbps
Channel(s) : 6 channels
Channel positions : Front: L C R, Surround: L R, LFE
Sampling rate : 48.0 KHz
Resolution : 24 bits
Stream size : 1.36 GiB (20%)
Language : English
Audio #4
ID : 7
Format : AC-3
Format/Info : Audio Coding 3
Codec ID : A_AC3
Duration : 2h 9mn
Bit rate mode : Constant
Bit rate : 192 Kbps
Channel(s) : 2 channels
Channel positions : L R
Sampling rate : 48.0 KHz
Stream size : 177 MiB (3%)
Title : Commentary
Language : English
Text #1
ID : 4
Format : UTF-8
Codec ID : S_TEXT/UTF8
Codec ID/Info : UTF-8 Plain Text
Language : Russian
Text #2
ID : 5
Format : UTF-8
Codec ID : S_TEXT/UTF8
Codec ID/Info : UTF-8 Plain Text
Language : English
-Скриншоты:
Время раздачи: 24/7 - круглосуточно

[Цитировать]



Показать сообщения:    

Текущее время: 10-Дек 06:10

Часовой пояс: UTC + 3


Вы не можете начинать темы
Вы не можете отвечать на сообщения
Вы не можете редактировать свои сообщения
Вы не можете удалять свои сообщения
Вы не можете голосовать в опросах
Вы не можете прикреплять файлы к сообщениям
Вы не можете скачивать файлы

!ВНИМАНИЕ!
Сайт не предоставляет электронные версии произведений, а занимается лишь коллекционированием и каталогизацией ссылок, присылаемых и публикуемых на форуме нашими читателями. Если вы являетесь правообладателем какого-либо представленного материала и не желаете, чтобы ссылка на него находилась в нашем каталоге, свяжитесь с нами, и мы незамедлительно удалим ее. Файлы для обмена на трекере предоставлены пользователями сайта, и администрация не несет ответственности за их содержание. Просьба не заливать файлы, защищенные авторскими правами, а также файлы нелегального содержания!