[ Сегодня идет свободное скачивание без начисления Download ]


Статистика раздачи
Нет
 
   
 
Top  
 
 
-Крот (1-2 сезон, 24 серии из 24) (2001-2002) DVDRip- Оригинальное название: Крот
Год выпуска: 2001-2002
Выпущено: Россия, Киномост
Жанр: драма, криминал-
Режиссер: Эрнест Ясан
Актеры: Павел Новиков, Николай Волков (младший), Дмитрий Нагиев, Виктор Смирнов, Борис Соколов, Сергей Щербин, Виктор Мережко, Виктор Костецкий, Константин Спасский, Алексей Осьминин, Мария Кивва, Анна Калугина, Елена Попова, Ирина Горячева, Александр Строев (III), Алексей Зубарев, Михаил Трясоруков, Денис Кириллов, Леонид Максимов, Анна Герм, Евгений Александров, Сергей Мурзин, Александр Тютрюмов, Андрей Шарков, Александр Завьялов, Дмитрий Конокотов, Анна Королёва, Николай Устинов, Александр Богурдович, Сергей Гейбах, Владислав Берлев, Иван Лунев, Юрий Сергеев (III), Эрнст Романов, Денис Агатов, Сурен Вартанов, Борис Бирман, Александра Сыдорук, Саша Сотников, Валерий Ярёменко

Описание фильма:
"Крот" на языке спецслужб - человек, внедрённый в криминальные сферы. Ради работы в спецслужбах агент должен забыть всё, начиная от любимой жены и заканчивая родным городом... Оперативного работника уголовного розыска Сергея Кузьмичева посылают в Москву с целью внедрения в одну из преступных группировок. Его первое задание представляется не очень сложным. Молодой парень из провинции, якобы приехавший на заработки, успешно с ним справляется. Однако, по воле случая, он оказывается в самом пекле бандитских разборок, и, как настоящий оперативник, с риском для жизни, решает продолжить "игру".....-Продолжительность: серия ~ 00:44
Качество видео: DVDRip
Видеокодек: XviD
Формат: AVI
Битрейт видео: ~ 1307 kbps avg
Размер кадра: 640x480 (4:3)
Аудиокодек: AC3
Битрейт аудио: 48 kHz, AC3, 2 ch, ~192 .00 kbps avg
Субтитры: отсутствуют

MediaInfo:

Format : AVI
Format/Info : Audio Video Interleave
File size : 550 MiB
Duration : 51mn 4s
Overall bit rate : 1 506 Kbps
Writing application : VirtualDubMod 1.5.4.1 (build 2178/release)
Writing library : VirtualDubMod build 2178/release
Video
ID : 0
Format : MPEG-4 Visual
Format profile : Advanced Simple@L5
Format settings, BVOP : 1
Format settings, QPel : No
Format settings, GMC : No warppoints
Format settings, Matrix : Custom
Codec ID : XVID
Codec ID/Hint : XviD
Duration : 51mn 4s
Bit rate : 1 307 Kbps
Width : 640 pixels
Height : 480 pixels
Display aspect ratio : 4:3
Frame rate : 25.000 fps
Color space : YUV
Chroma subsampling : 4:2:0
Bit depth : 8 bits
Scan type : Progressive
Compression mode : Lossy
Bits/(Pixel*Frame) : 0.170
Stream size : 477 MiB (87%)
Writing library : XviD 1.3.0.dev55
Audio
ID : 1
Format : AC-3
Format/Info : Audio Coding 3
Mode extension : CM (complete main)
Format settings, Endianness : Big
Codec ID : 2000
Duration : 51mn 4s
Bit rate mode : Constant
Bit rate : 192 Kbps
Channel(s) : 2 channels
Channel positions : Front: L R
Sampling rate : 48.0 KHz
Bit depth : 16 bits
Compression mode : Lossy
Stream size : 70.1 MiB (13%)
Alignment : Split accross interleaves
Interleave, duration : 96 ms (2.40 video frames)
Interleave, preload duration : 96 ms
Language : Russian
Скриншоты:

Время раздачи: 24/7

[Цитировать]



Показать сообщения:    

Текущее время: 11-Дек 13:02

Часовой пояс: UTC + 3


Вы не можете начинать темы
Вы не можете отвечать на сообщения
Вы не можете редактировать свои сообщения
Вы не можете удалять свои сообщения
Вы не можете голосовать в опросах
Вы не можете прикреплять файлы к сообщениям
Вы не можете скачивать файлы

!ВНИМАНИЕ!
Сайт не предоставляет электронные версии произведений, а занимается лишь коллекционированием и каталогизацией ссылок, присылаемых и публикуемых на форуме нашими читателями. Если вы являетесь правообладателем какого-либо представленного материала и не желаете, чтобы ссылка на него находилась в нашем каталоге, свяжитесь с нами, и мы незамедлительно удалим ее. Файлы для обмена на трекере предоставлены пользователями сайта, и администрация не несет ответственности за их содержание. Просьба не заливать файлы, защищенные авторскими правами, а также файлы нелегального содержания!