[ Сегодня идет свободное скачивание без начисления Download ]


Статистика раздачи
Нет
 
   
 
 
 
-Операция "Тушенка" / L'op?ration Corned-Beef (1991) HDTVRip- Русское название: Операция "Тушенка"
Оригинальное название: L'op?ration Corned-Beef
Год выпуска: 1991
Производство: Франция / Alter Films, Gaumont Production, TF1 Films Production
Жанр: Боевик, Мелодрама, Комедия
Описание фильма:
Рено в роли секретного агента по прозвищу Акула должен уничтожить международную сеть торговцев оружием и выявить предателя в высших эшелонах власти. Для решения этой задачи ему разрешено пользоваться любыми средствами, не гнушаясь…
Режиссер: Жан-Мари Пуарэ
Актеры: Кристиан Клавье, Жан Рено, Изабель Рено, Валери Лемерсье, Жак Франсуа, Мирей Рюфель, Марк Де Йонге, Жак Дакмин, Жак Серей, Жан-Мари Корниль.
Продолжительность: 01:41:28
Перевод: Профессиональный (многоголосый закадровый) ОРТ, Профессиональный (двухголосый закадровый) Союз Видео, Профессиональный (многоголосый закадровый) РенТВ, Любительский (двухголосый закадровый)- -
Дата мировой премьеры: 6 февраля 1991
Видеокодек: MPEG-4 AVC/H.264
Битрейт видео: ~9 308 kbit/s
Размер кадра: 1920x1080
Качество видео: HDTVRip 1080p
Аудио 1: AC-3, 48 KHz, 2 ch, 192 Kbps Русский - Профессиональный (многоголосый закадровый) ОРТ
Аудио 2: AC-3, 48 KHz, 2 ch, 192 Kbps Русский - Профессиональный (двухголосый закадровый) Союз Видео
Аудио 3: AC-3, 48 KHz, 2 ch, 192 Kbps Русский - Профессиональный (многоголосый закадровый) РенТВ
Аудио 4: AC-3, 48 KHz, 2 ch, 192 Kbps Русский - Любительский (двухголосый закадровый)
Аудио 5: AC-3, 48 KHz, 6 ch, 448 Kbps Французский - Оригинальный
Cубтитры: Отсутствуют

MediaInfo:

General
Unique ID : 201574996275702696856186066239580176034 (0x97A5EEA082F6076DBB2FC159023E7EA2)
Complete name : D:\Video\L.Operation.Corned.Beef.1991.HDTV.1080p.mkv
Format : Matroska
Format version : Version 4 / Version 2
File size : 7.51 GiB
Duration : 1h 41mn
Overall bit rate : 10.6 Mbps
Encoded date : UTC 2013-02-15 05:35:39
Writing application : mkvmerge v6.0.0 ('Coming Up For Air') built on Jan 20 2013 09:52:00
Writing library : libebml v1.3.0 + libmatroska v1.4.0
Video
ID : 1
Format : AVC
Format/Info : Advanced Video Codec
Format profile : High@L4.0
Format settings, CABAC : Yes
Format settings, ReFrames : 4 frames
Codec ID : V_MPEG4/ISO/AVC
Duration : 1h 41mn
Bit rate : 9 308 Kbps
Width : 1 920 pixels
Height : 1 080 pixels
Display aspect ratio : 16:9
Frame rate mode : Constant
Frame rate : 25.000 fps
Color space : YUV
Chroma subsampling : 4:2:0
Bit depth : 8 bits
Scan type : Progressive
Bits/(Pixel*Frame) : 0.180
Stream size : 6.50 GiB (87%)
Title : L'op?ration Corned-Beef_1990_HDTV 1080p_muxed_by_rjhlb777
Writing library : x264 core 128 r2216 198a7ea
Encoding settings : cabac=1 / ref=3 / deblock=1:-1:-1 / analyse=0x3:0x113 / me=hex / subme=7 / psy=1 / psy_rd=1.00:0.15 / mixed_ref=1 / me_range=16 / chroma_me=1 / trellis=1 / 8x8dct=1 / cqm=0 / deadzone=21,11 / fast_pskip=1 / chroma_qp_offset=-3 / threads=6 / lookahead_threads=1 / sliced_threads=0 / nr=0 / decimate=1 / interlaced=0 / bluray_compat=0 / constrained_intra=0 / bframes=3 / b_pyramid=2 / b_adapt=1 / b_bias=0 / direct=1 / weightb=1 / open_gop=0 / weightp=2 / keyint=250 / keyint_min=25 / scenecut=40 / intra_refresh=0 / rc_lookahead=40 / rc=abr / mbtree=1 / bitrate=9308 / ratetol=1.0 / qcomp=0.60 / qpmin=0 / qpmax=69 / qpstep=4 / ip_ratio=1.40 / aq=1:1.00
Language : French
Default : Yes
Forced : No
Audio #1
ID : 2
Format : AC-3
Format/Info : Audio Coding 3
Mode extension : CM (complete main)
Format settings, Endianness : Big
Codec ID : A_AC3
Duration : 1h 41mn
Bit rate mode : Constant
Bit rate : 192 Kbps
Channel(s) : 2 channels
Channel positions : Front: L R
Sampling rate : 48.0 KHz
Bit depth : 16 bits
Compression mode : Lossy
Stream size : 139 MiB (2%)
Title : MVO_ORT_1 Channel
Language : Russian
Default : Yes
Forced : No
Audio #2
ID : 3
Format : AC-3
Format/Info : Audio Coding 3
Mode extension : CM (complete main)
Format settings, Endianness : Big
Codec ID : A_AC3
Duration : 1h 41mn
Bit rate mode : Constant
Bit rate : 192 Kbps
Channel(s) : 2 channels
Channel positions : Front: L R
Sampling rate : 48.0 KHz
Bit depth : 16 bits
Compression mode : Lossy
Stream size : 139 MiB (2%)
Title : DVO_Soiuz_Video
Language : Russian
Default : No
Forced : No
Audio #3
ID : 4
Format : AC-3
Format/Info : Audio Coding 3
Mode extension : CM (complete main)
Format settings, Endianness : Big
Codec ID : A_AC3
Duration : 1h 41mn
Bit rate mode : Constant
Bit rate : 192 Kbps
Channel(s) : 2 channels
Channel positions : Front: L R
Sampling rate : 48.0 KHz
Bit depth : 16 bits
Compression mode : Lossy
Stream size : 139 MiB (2%)
Title : MVO_Ren TV
Language : Russian
Default : No
Forced : No
Audio #4
ID : 5
Format : AC-3
Format/Info : Audio Coding 3
Mode extension : CM (complete main)
Format settings, Endianness : Big
Codec ID : A_AC3
Duration : 1h 41mn
Bit rate mode : Constant
Bit rate : 192 Kbps
Channel(s) : 2 channels
Channel positions : Front: L R
Sampling rate : 48.0 KHz
Bit depth : 16 bits
Compression mode : Lossy
Stream size : 139 MiB (2%)
Title : VO_double_(Lubitelski)
Language : Russian
Default : No
Forced : No
Audio #5
ID : 6
Format : AC-3
Format/Info : Audio Coding 3
Mode extension : CM (complete main)
Format settings, Endianness : Big
Codec ID : A_AC3
Duration : 1h 41mn
Bit rate mode : Constant
Bit rate : 448 Kbps
Channel(s) : 6 channels
Channel positions : Front: L C R, Side: L R, LFE
Sampling rate : 48.0 KHz
Bit depth : 16 bits
Compression mode : Lossy
Stream size : 325 MiB (4%)
Title : Original
Language : French
Default : No
Forced : No
Скриншоты:

Время раздачи: 24/7 - круглосуточно

[Цитировать]



Показать сообщения:    

Текущее время: 08-Дек 23:09

Часовой пояс: UTC + 3


Вы не можете начинать темы
Вы не можете отвечать на сообщения
Вы не можете редактировать свои сообщения
Вы не можете удалять свои сообщения
Вы не можете голосовать в опросах
Вы не можете прикреплять файлы к сообщениям
Вы не можете скачивать файлы

!ВНИМАНИЕ!
Сайт не предоставляет электронные версии произведений, а занимается лишь коллекционированием и каталогизацией ссылок, присылаемых и публикуемых на форуме нашими читателями. Если вы являетесь правообладателем какого-либо представленного материала и не желаете, чтобы ссылка на него находилась в нашем каталоге, свяжитесь с нами, и мы незамедлительно удалим ее. Файлы для обмена на трекере предоставлены пользователями сайта, и администрация не несет ответственности за их содержание. Просьба не заливать файлы, защищенные авторскими правами, а также файлы нелегального содержания!