[ Сегодня идет свободное скачивание без начисления Download ]


Статистика раздачи
Нет
 
   
 
Top  
 
 
Годзилла против Биолланте / Godzilla vs. Biollante
Страна: Япония
Жанр: ужасы, фантастика, боевик, драма
Год выпуска: 1989
Продолжительность: 01:44:51
Перевод: Профессиональный (многоголосый закадровый)
Оригинальная аудиодорожка: японская
Режиссер: Казуки Омори / Kazuki Omori
В ролях: Кунихико Митамура (Kazuhito Kirishima), Ёсико Танака (Asuka Okouchi), Масанобу Такашима (Major Sho Kuroki), Кодзи Такахаши (Dr. Shiragami), Тору Минегиши (Lieutenant Goro Gondo), Мегуми Одака (Miki Saegusa), Тошиюки Нагашима (Director Seiichi Yamamoto), Рюноскэ Канэда (Azuka's Father), Казума Матсубара (Self Defense Forces Officer), Ясунори Юге (Prime Minister), Ёсико Куга (Prime Minister's Wife), Ясуко Савагучи (Erika Shiragami)
Описание: Гениальный ученый Шурагами создал супер организм Биорант, используя для этого радиоактивные клетки Годзиллы, за которыми охотится международная мафия. А в это время извержение вулкана возродило спящего на дне Токийского залива Годзиллу к жизни. Жители Япония в панике — встреча двух монстров неизбежна и выживет только один из них. И на этот случай силы обороны приготовили своё новое оружие «Супер Икс-2», с помощью которого они готовы уничтожить уцелевшего монстра.
Тип релиза: BDRemux 1080p
Контейнер: MKV
Видео: AVC, NTSC, 1920x1080, 16x9, 19.7 Mbps, 23.976 fps
Аудио 1:русский, AC3, Bit rate : 448 Kbps, Channel(s) : 2 channels, Sampling rate : 48.0 KHz
Аудио 2:японский, DTS, Bit rate : 1509 Kbps, Channel(s) : 6 channels, Sampling rate : 48.0 KHz
Аудио 3:английский, AC3, Bit rate : 256 Kbps, Channel(s) : 2 channels, Sampling rate : 48.0 KHz
Cубтитры 1: русские (srt) (взяты из DVD раздачи)
Cубтитры 2: английские (srt)

MediaInfo

Format : Matroska
Format version : Version 4 / Version 2
File size : 17.5 GiB
Duration : 1h 44mn
Overall bit rate mode : Variable
Overall bit rate : 23.9 Mbps
Encoded date : UTC 2013-04-09 16:13:16
Writing application : mkvmerge v6.1.0 ('Old Devil') built on Mar 2 2013 14:32:37
Writing library : libebml v1.3.0 + libmatroska v1.4.0
Video
ID : 1
Format : AVC
Format/Info : Advanced Video Codec
Format profile : [email protected]
Format settings, CABAC : Yes
Format settings, ReFrames : 4 frames
Format settings, GOP : M=3, N=24
Codec ID : V_MPEG4/ISO/AVC
Duration : 1h 44mn
Bit rate mode : Variable
Maximum bit rate : 35.0 Mbps
Width : 1 920 pixels
Height : 1 080 pixels
Display aspect ratio : 16:9
Frame rate mode : Constant
Frame rate : 23.976 fps
Standard : NTSC
Color space : YUV
Chroma subsampling : 4:2:0
Bit depth : 8 bits
Scan type : Progressive
Default : Yes
Forced : No
Color primaries : BT.709
Transfer characteristics : BT.709
Matrix coefficients : BT.709
Audio #1
ID : 2
Format : AC-3
Format/Info : Audio Coding 3
Mode extension : CM (complete main)
Format settings, Endianness : Big
Codec ID : A_AC3
Duration : 1h 44mn
Bit rate mode : Constant
Bit rate : 448 Kbps
Channel(s) : 2 channels
Channel positions : Front: L R
Sampling rate : 48.0 KHz
Bit depth : 16 bits
Compression mode : Lossy
Stream size : 336 MiB (2%)
Title : AC3 (многоголосый закадровый)
Language : Russian
Default : Yes
Forced : No
Audio #2
ID : 3
Format : DTS
Format/Info : Digital Theater Systems
Format profile : MA / Core
Mode : 16
Format settings, Endianness : Big
Codec ID : A_DTS
Duration : 1h 44mn
Bit rate mode : Variable
Bit rate : Unknown / 1 509 Kbps
Channel(s) : 6 channels
Channel positions : Front: L C R, Side: L R, LFE
Sampling rate : 48.0 KHz
Bit depth : 24 bits
Compression mode : Lossless / Lossy
Title : DTS
Language : Japanese
Default : No
Forced : No
Audio #3
ID : 4
Format : AC-3
Format/Info : Audio Coding 3
Mode extension : CM (complete main)
Format settings, Endianness : Big
Codec ID : A_AC3
Duration : 1h 44mn
Bit rate mode : Constant
Bit rate : 256 Kbps
Channel(s) : 2 channels
Channel positions : Front: L R
Sampling rate : 48.0 KHz
Bit depth : 16 bits
Compression mode : Lossy
Stream size : 192 MiB (1%)
Title : AC3
Language : English
Default : No
Forced : No
Text #1
ID : 5
Format : UTF-8
Codec ID : S_TEXT/UTF8
Codec ID/Info : UTF-8 Plain Text
Language : Russian
Default : No
Forced : No
Text #2
ID : 6
Format : UTF-8
Codec ID : S_TEXT/UTF8
Codec ID/Info : UTF-8 Plain Text
Language : English
Default : No
Forced : No

Скриншоты

Сэмпл

[Цитировать]



Показать сообщения:    

Текущее время: 06-Дек 13:07

Часовой пояс: UTC + 3


Вы не можете начинать темы
Вы не можете отвечать на сообщения
Вы не можете редактировать свои сообщения
Вы не можете удалять свои сообщения
Вы не можете голосовать в опросах
Вы не можете прикреплять файлы к сообщениям
Вы не можете скачивать файлы

!ВНИМАНИЕ!
Сайт не предоставляет электронные версии произведений, а занимается лишь коллекционированием и каталогизацией ссылок, присылаемых и публикуемых на форуме нашими читателями. Если вы являетесь правообладателем какого-либо представленного материала и не желаете, чтобы ссылка на него находилась в нашем каталоге, свяжитесь с нами, и мы незамедлительно удалим ее. Файлы для обмена на трекере предоставлены пользователями сайта, и администрация не несет ответственности за их содержание. Просьба не заливать файлы, защищенные авторскими правами, а также файлы нелегального содержания!