[ Сегодня идет свободное скачивание без начисления Download ]


Статистика раздачи
Нет
 
   
 
Top  
 
 
Неприкаянные / The Misfits
Страна: США
Студия: Seven Arts Productions
Жанр: драма, мелодрама, вестерн
Год выпуска: 1961
Продолжительность: 01:53:30
Перевод (1): профессиональный (многоголосый закадровый) - "DVD Магия"
Перевод (2): профессиональный (двухголосый закадровый) - НТВ+
Перевод (3): профессиональный (многоголосый закадровый) - "Светла"
Перевод (4): одноголосый (закадровый) - ???????
Cубтитры: английские
Оригинальная аудиодорожка: английская
Премьера (мир): 1 февраля 1961
Режиссер: Джон Хьюстон / John Huston
Композитор: Алекс Норт / Alex North
В ролях: Кларк Гэйбл / Clark Gable...Gay Langland, $ 750 000
Мэрилин Монро / Marilyn Monroe... Roslyn Taber, $ 300 000
Монтгомери Клифт / Montgomery Clift... Perce Howland
Тельма Риттер / Thelma Ritter... Isabelle Steers
Эли Уоллах / Eli Wallach... Guido
Джеймс Бартон / James Barton... Fletcher's grandfather
Кевин МакКарти / Kevin McCarthy... Raymond Taber
Эстель Уинвуд / Estelle Winwood... Church lady collecting money in bar
Фрэнк Фанелли ст. / Frank Fanelli Sr.... Gambler at bar
Пегги Бартон / Peggy Barton... Young bride
Джон Хьюстон / John Huston... Extra in blackjack

Описание:
Соблазнительная и печальная, Розлин специально приехала в городок Рино, чтобы развестись с мужем. В местном баре Розлин и ее приятельница Изабель - неунывающая дамочка преклонных «средних лет», специалистка по разводам - знакомятся с двумя ковбоями. Гэй и Гвидс - мужчины с большим жизненным опытом тоже одинокие и неприкаянные. Они странствуют по Неваде в поисках случайного заработка, и горячий ветер пустыни, суровая мужская дружба, тяга к виски, мальчишеская влюбленность в родео и недостроенный домик вдалеке от города - и это все, что у них есть. Богатством, которым ковбои обладают, они готовы поделиться с Розлин, которая ищет верности и настоящего человеческого тепла. Странная компания и присоединившийся к ним неудачливый ковбой Пирс отправляются в горы на ранчо, чтобы «как встарые добрые времена» объезжать диких невадских мустангов…
По сценарию Артура Миллера (Arthur Miller).

Тип релиза: BDRip 720p
Контейнер: MKV
Видео: MPEG-4 AVC Video 9942 Кбит/сек / 1200 x 720 p / 23,976 fps / High Profile 4.1
Аудио 1: Russian (Dolby AC3, 2 ch), 48000Hz, 192Kbps - - "DVD Магия"
Аудио 2: Russian (Dolby AC3, 2 ch), 48000Hz, 192Kbps - - НТВ+
Аудио 3: Russian (Dolby AC3, 2 ch), 48000Hz, 192Kbps - - "Светла"
Аудио 4: Russian (Dolby AC3, 2 ch), 48000Hz, 192Kbps - - ???????
Аудио 5: English DTS 2.0 1509 Кбит/сек, 48000Hz, 24 бит
Субтитры: English, UTF-8

Media Info

Общее
Уникальный идентификатор                 : 216540941079467990544436968938480840249 (0xA2E844ACC1FB67FD8C92DAD36247AE39)
Полное имя                               : E:\MARYLIN MONROE\Неприкаянные 1961 (DVD 9)\The Misfits 1961 (BDRip) - 720p\The Misfits 1961 (BDRip) - 720p\The.Misfits.1961.4xRus.Eng.720p.Sub.Eng.BluRay.x264.DTS-WiKi.mkv
Формат                                   : Matroska
Версия формата                           : Version 4 / Version 2
Размер файла                             : 10,7 Гбайт
Продолжительность                        : 2 ч. 4 м.
Общий поток                              : 12,2 Мбит/сек
Название фильма                          : YiFan @ WiKi
Дата кодирования                         : UTC 2013-01-26 18:26:13
Программа кодирования                    : mkvmerge v6.0.0 ('Coming Up For Air') built on Jan 20 2013 09:52:00
Библиотека кодирования                   : libebml v1.3.0 + libmatroska v1.4.0
Видео
Идентификатор                            : 1
Формат                                   : AVC
Формат/Информация                        : Advanced Video Codec
Профиль формата                          : High@L4.1
Параметр CABAC формата                   : Да
Параметр ReFrames формата                : 9 кадров
Идентификатор кодека                     : V_MPEG4/ISO/AVC
Продолжительность                        : 2 ч. 4 м.
Битрейт                                  : 9942 Кбит/сек
Ширина                                   : 1200 пикселей
Высота                                   : 720 пикселей
Соотношение сторон                       : 1,667
Режим частоты кадров                     : Постоянный
Частота кадров                           : 23,976 кадра/сек
Цветовое пространство                    : YUV
Субдискретизация насыщенности            : 4:2:0
Битовая глубина                          : 8 бит
Тип развёртки                            : Прогрессивная
Бит/(Пиксели*Кадры)                      : 0.480
Размер потока                            : 8,47 Гбайт (79%)
Библиотека кодирования                   : x264 core 124 r2197 69a0443
Настройки программы                      : cabac=1 / ref=9 / deblock=1:-3:-3 / analyse=0x3:0x133 / me=umh / subme=11 / psy=1 / psy_rd=1.10:0.15 / mixed_ref=1 / me_range=32 / chroma_me=0 / trellis=2 / 8x8dct=1 / cqm=0 / deadzone=21,11 / fast_pskip=0 / chroma_qp_offset=-3 / threads=12 / sliced_threads=0 / nr=0 / decimate=1 / interlaced=0 / bluray_compat=0 / constrained_intra=0 / bframes=8 / b_pyramid=2 / b_adapt=2 / b_bias=0 / direct=3 / weightb=1 / open_gop=0 / weightp=2 / keyint=250 / keyint_min=23 / scenecut=40 / intra_refresh=0 / rc_lookahead=100 / rc=2pass / mbtree=1 / bitrate=9942 / ratetol=1.0 / qcomp=0.60 / qpmin=0 / qpmax=69 / qpstep=4 / cplxblur=20.0 / qblur=0.5 / ip_ratio=1.40 / aq=1:0.95 / zones=0,242,chroma-me=1
Язык                                     : English
Default                                  : Да
Forced                                   : Нет
Аудио #1
Идентификатор                            : 2
Формат                                   : AC-3
Формат/Информация                        : Audio Coding 3
Расширение режима                        : CM (complete main)
Параметр Endianness формата              : Big
Идентификатор кодека                     : A_AC3
Продолжительность                        : 2 ч. 4 м.
Вид битрейта                             : Постоянный
Битрейт                                  : 192 Кбит/сек
Каналы                                   : 2 канала
Расположение каналов                     : Front: L R
Частота                                  : 48,0 КГц
Битовая глубина                          : 16 бит
Метод сжатия                             : С потерями
Размер потока                            : 172 Мбайт (2%)
Заголовок                                : DVD Магия
Язык                                     : Russian
Default                                  : Да
Forced                                   : Нет
Аудио #2
Идентификатор                            : 3
Формат                                   : AC-3
Формат/Информация                        : Audio Coding 3
Расширение режима                        : CM (complete main)
Параметр Endianness формата              : Big
Идентификатор кодека                     : A_AC3
Продолжительность                        : 2 ч. 4 м.
Вид битрейта                             : Постоянный
Битрейт                                  : 192 Кбит/сек
Каналы                                   : 2 канала
Расположение каналов                     : Front: L R
Частота                                  : 48,0 КГц
Битовая глубина                          : 16 бит
Метод сжатия                             : С потерями
Размер потока                            : 172 Мбайт (2%)
Заголовок                                : НТВ+|
Язык                                     : Russian
Default                                  : Нет
Forced                                   : Нет
Аудио #3
Идентификатор                            : 4
Формат                                   : AC-3
Формат/Информация                        : Audio Coding 3
Расширение режима                        : CM (complete main)
Параметр Endianness формата              : Big
Идентификатор кодека                     : A_AC3
Продолжительность                        : 2 ч. 4 м.
Вид битрейта                             : Постоянный
Битрейт                                  : 192 Кбит/сек
Каналы                                   : 2 канала
Расположение каналов                     : Front: L R
Частота                                  : 48,0 КГц
Битовая глубина                          : 16 бит
Метод сжатия                             : С потерями
Размер потока                            : 172 Мбайт (2%)
Заголовок                                : Светла
Язык                                     : Russian
Default                                  : Нет
Forced                                   : Нет
Аудио #4
Идентификатор                            : 5
Формат                                   : AC-3
Формат/Информация                        : Audio Coding 3
Расширение режима                        : CM (complete main)
Параметр Endianness формата              : Big
Идентификатор кодека                     : A_AC3
Продолжительность                        : 2 ч. 4 м.
Вид битрейта                             : Постоянный
Битрейт                                  : 192 Кбит/сек
Каналы                                   : 2 канала
Расположение каналов                     : Front: L R
Частота                                  : 48,0 КГц
Битовая глубина                          : 16 бит
Метод сжатия                             : С потерями
Размер потока                            : 172 Мбайт (2%)
Заголовок                                : Неизвестный
Язык                                     : Russian
Default                                  : Нет
Forced                                   : Нет
Аудио #5
Идентификатор                            : 6
Формат                                   : DTS
Формат/Информация                        : Digital Theater Systems
Режим                                    : 16
Параметр Endianness формата              : Big
Идентификатор кодека                     : A_DTS
Продолжительность                        : 2 ч. 4 м.
Вид битрейта                             : Постоянный
Битрейт                                  : 1509 Кбит/сек
Каналы                                   : 2 канала
Расположение каналов                     : Front: L R
Частота                                  : 48,0 КГц
Битовая глубина                          : 24 бит
Метод сжатия                             : С потерями
Размер потока                            : 1,32 Гбайт (12%)
Заголовок                                : Dialog
Default                                  : Нет
Forced                                   : Нет
Текст
Идентификатор                            : 7
Формат                                   : UTF-8
Идентификатор кодека                     : S_TEXT/UTF8
Идентификатор кодека/Информация          : UTF-8 Plain Text
Заголовок                                : Английские
Язык                                     : English
Default                                  : Нет
Forced                                   : Нет
Меню
00:00:00.000                             : en:00:00:00.000
00:10:46.563                             : en:00:10:46.563
00:16:33.659                             : en:00:16:33.659
00:24:18.457                             : en:00:24:18.457
00:29:58.505                             : en:00:29:58.505
00:39:49.846                             : en:00:39:49.846
00:46:25.408                             : en:00:46:25.408
00:51:22.538                             : en:00:51:22.538
00:57:29.112                             : en:00:57:29.112
01:10:49.412                             : en:01:10:49.412
01:22:12.094                             : en:01:22:12.094
01:30:12.365                             : en:01:30:12.365
01:39:59.619                             : en:01:39:59.619
01:46:35.598                             : en:01:46:35.598
01:52:52.891                             : en:01:52:52.891
02:02:00.897                             : en:02:02:00.897

О диске


BDRip - The.Misfits.1961.720p.BluRay.x264.DTS-WiKi.mkv
Добавлены четыре русские дорожки. Как объяснил xamster (большое ему спасибо за работу со звуком), выходтит так:
Сохранены оригинальные чаптеры как на Blu-ray.
За запись дорожки НТВ+ спасибо dsk71.
За исходник дорожки Светлы спасибо palmeiras.
За исходник дорожки Неизвестного спасибо Nadoelo. Дорожка была весьма посредственного качества и имела ряд других технических недостатков, но тем не менее была синхронизирована. В течение фильма встречается порядка 10 мелких вставок из оригинала продолжительностью до 200мс каждая, что выглядит как тишина при прослушивании, т.к встречаются эти вставки в основном на паузах, и кассетного шума в оригинале нет. В конце 15-й минуты также сделана 11-секундная вставка из дорожки Светлы, т.к этот участок был запорот.

Скриншоты

[Цитировать]



Показать сообщения:    

Текущее время: 10-Дек 17:42

Часовой пояс: UTC + 3


Вы не можете начинать темы
Вы не можете отвечать на сообщения
Вы не можете редактировать свои сообщения
Вы не можете удалять свои сообщения
Вы не можете голосовать в опросах
Вы не можете прикреплять файлы к сообщениям
Вы не можете скачивать файлы

!ВНИМАНИЕ!
Сайт не предоставляет электронные версии произведений, а занимается лишь коллекционированием и каталогизацией ссылок, присылаемых и публикуемых на форуме нашими читателями. Если вы являетесь правообладателем какого-либо представленного материала и не желаете, чтобы ссылка на него находилась в нашем каталоге, свяжитесь с нами, и мы незамедлительно удалим ее. Файлы для обмена на трекере предоставлены пользователями сайта, и администрация не несет ответственности за их содержание. Просьба не заливать файлы, защищенные авторскими правами, а также файлы нелегального содержания!