[ Сегодня идет свободное скачивание без начисления Download ]


Статистика раздачи
Нет
 
   
 
Top  
 
 
Огни большого города / City Lights
Страна: США
Жанр: драма, мелодрама, комедия
Год выпуска: 1931
Продолжительность: 01:27:00
Перевод: Субтитры
Cубтитры: Russian
Оригинальная аудиодорожка: English
Режиссер: Чарльз Чаплин / Charles Chaplin
В ролях: Чарльз Чаплин, Вирджиния Черрилл, Флоренс Ли, Гарри Майерс, Аль Эрнест Гарсиа, Хэнк Манн, Джек Александр, Т.С. Александр, Виктор Александр, Альберт Остин
Описание: Маленький Бродяга встречает красивую слепую девушку, торгующую цветами на улице, которая по ошибке принимает его за богатого герцога. Узнав о том, что операция может вернуть ей зрение, маленький Бродяга пускается на поиски денег.
Тип релиза: BDRip 1080p
Контейнер: MKV

Видео: MPEG-4 AVC, 1440x1080 (4:3), 9284 Kbps, 23.976 fps
Аудио: DTS 2.0, 48 KHz, 1510 Kbps

MediaInfo

General
Unique ID : 239402757113674728888442639559188808141 (0xB41B4B3B068D2A7ABBA29C0ABCDC01CD)
Complete name : Q:\torrent\Blue-ray\Projects\City.Lights.1931.1080p.BDRip.mkv
Format : Matroska
Format version : Version 2
File size : 6.56 GiB
Duration : 1h 27mn
Overall bit rate : 10.8 Mbps
Movie name : /\ SASHA FIL /\
Encoded date : UTC 2010-05-14 16:08:47
Writing application : mkvmerge v3.2.0 ('Beginnings') built on Feb 12 2010 16:46:17
Writing library : libebml v0.7.9 + libmatroska v0.8.1
Video
ID : 1
Format : AVC
Format/Info : Advanced Video Codec
Format profile : High@L4.1
Format settings, CABAC : Yes
Format settings, ReFrames : 4 frames
Codec ID : V_MPEG4/ISO/AVC
Duration : 1h 27mn
Bit rate : 9 284 Kbps
Width : 1 440 pixels
Height : 1 080 pixels
Display aspect ratio : 4:3
Frame rate : 23.976 fps
Color space : YUV
Chroma subsampling : 4:2:0
Bit depth : 8 bits
Scan type : Progressive
Bits/(Pixel*Frame) : 0.249
Stream size : 5.52 GiB (84%)
Writing library : x264 core 94 r1583 7608d73
Encoding settings : cabac=1 / ref=4 / deblock=1:0:0 / analyse=0x3:0x133 / me=umh / subme=9 / psy=1 / psy_rd=1.00:0.00 / mixed_ref=1 / me_range=16 / chroma_me=1 / trellis=1 / 8x8dct=1 / cqm=0 / deadzone=21,11 / fast_pskip=0 / chroma_qp_offset=-2 / threads=12 / sliced_threads=0 / nr=0 / decimate=1 / interlaced=0 / constrained_intra=0 / bframes=3 / b_pyramid=2 / b_adapt=1 / b_bias=0 / direct=1 / weightb=1 / weightp=2 / keyint=250 / keyint_min=25 / scenecut=40 / intra_refresh=0 / rc_lookahead=40 / rc=2pass / mbtree=1 / bitrate=9284 / ratetol=1.0 / qcomp=0.60 / qpmin=10 / qpmax=51 / qpstep=4 / cplxblur=20.0 / qblur=0.5 / ip_ratio=1.40 / aq=1:1.00
Language : English
Audio
ID : 2
Format : DTS
Format/Info : Digital Theater Systems
Codec ID : A_DTS
Duration : 1h 27mn
Bit rate mode : Constant
Bit rate : 1 510 Kbps
Channel(s) : 2 channels
Channel positions : Front: L R
Sampling rate : 48.0 KHz
Bit depth : 16 bits
Compression mode : Lossy
Stream size : 940 MiB (14%)
Language : English
Text
ID : 3
Format : UTF-8
Codec ID : S_TEXT/UTF8
Codec ID/Info : UTF-8 Plain Text
Language : Russian

Скриншоты

[Цитировать]



Показать сообщения:    

Текущее время: 08-Дек 03:15

Часовой пояс: UTC + 3


Вы не можете начинать темы
Вы не можете отвечать на сообщения
Вы не можете редактировать свои сообщения
Вы не можете удалять свои сообщения
Вы не можете голосовать в опросах
Вы не можете прикреплять файлы к сообщениям
Вы не можете скачивать файлы

!ВНИМАНИЕ!
Сайт не предоставляет электронные версии произведений, а занимается лишь коллекционированием и каталогизацией ссылок, присылаемых и публикуемых на форуме нашими читателями. Если вы являетесь правообладателем какого-либо представленного материала и не желаете, чтобы ссылка на него находилась в нашем каталоге, свяжитесь с нами, и мы незамедлительно удалим ее. Файлы для обмена на трекере предоставлены пользователями сайта, и администрация не несет ответственности за их содержание. Просьба не заливать файлы, защищенные авторскими правами, а также файлы нелегального содержания!