[ Сегодня идет свободное скачивание без начисления Download ]


Статистика раздачи
Нет
 
   
 
Top  
 
 
Большие гонки / The Great Race
Страна: США
Студия: Warner Bros. Pictures, Patricia, Jalem Productions, Reynard
Жанр: Комедия, Приключения
Год выпуска: 1965
Продолжительность: 02:26:17
Перевод 1: Профессиональный (дублированный)
Перевод 2: Профессиональный (многоголосый закадровый) - Film Prestige
Перевод 3: Профессиональный (многоголосый закадровый) - DVD Magic
Русские субтитры: есть
Оригинальная аудиодорожка: английский
Режиссер: Блэйк Эдвардс / Blake Edwards
В ролях: Джек Леммон, Тони Кертис, Натали Вуд, Питер Фальк, Кинэн Уинн, Артур О'Коннелл, Вивиан Вэнс, Дороти Провайн, Ларри Сторч, Росс Мартин, Марвин Каплан, Хэл Смит (Jack Lemmon, Tony Curtis, Natalie Wood, Peter Falk, Keenan Wynn, Arthur O'Connell, Vivian Vance, Dorothy Provine, Larry Storch, Ross Martin, Marvin Kaplan, Hal Smith)
Описание: Начало ХХ века. Знаменитый испытатель, "рыцарь без страха и упрека", всегда с иголочки одетый во все белое, Лесли по прозвищу Великий организует беспрецедентный автопробег Нью-Йорк-Париж. Завистливый и злобный изобретатель профессор Фэйт со своим верным слугой Максом принимает вызов Лесли. Он готов на все, лишь бы тот не добрался до финиша живым. Но какое приключение без женщины?! И она появляется - красотка Мэгги обещает редактору ежедневной газеты сделать сенсационный репортаж с места событий и отправляется навстречу опасностям за рулем своей колымаги. Гонка стартовала, герой, красавица и злодей отправляются в путь. Поразительные приключения и невероятно смешные ситуации в этой блистательной комедии заставили долго и надрывно смеяться уже не одно поколение зрителей...
Доп. информация: Автор рипа - FiestaRed. Добавлены три русские дорожки: советский дубляж (со вставками многоголосого перевода в вырезанных сценах) и многоголосые переводы, взятые с DVD-релизов от "Film Prestige" и "DVD Magic". Также добавлены русские субтитры, взятые с DVD от "Film Prestige". В телевизионной версии вырезаны музыкальные фрагменты "Увертюра", "Антракт" и "Финал", поэтому данная версия короче кинотеатральной примерно на 5 минут.
Сэмпл
Тип релиза: HDTVRip 720p
Контейнер: MKV
Видео: 1280x530p, 25 fps, x264, 5928 kbps
Аудио 1: Russian - Дубляж (Dolby AC3, 2 ch) 192 Kbps / 48 000 Hz
Аудио 2: Russian - Film Prestige (Dolby AC3, 6 ch) 448 Kbps / 48 000 Hz
Аудио 3: Russian - DVD Magic (Dolby AC3, 6 ch) 448 Kbps / 48 000 Hz
Аудио 4: English (Dolby AC3, 6 ch) 448 Kbps / 48 000 Hz
Субтитры: Russian, English

MediaInfo

Уникальный идентификатор : 210521720121682864216113618504797762571 (0x9E61022B4312AEF89CBABDF8C4C1B40B)
Полное имя : The.Great.Race.(1965).HDTVRip.720p.x264.AC3.RUS.ENG.Sub.RUS.ENG.mkv
Формат : Matroska
Версия формата : Version 2
Размер файла : 7,63 Гбайт
Продолжительность : 2 ч. 26 м.
Общий поток : 7467 Кбит/сек
Название фильма : The Great Race (1965) HDTVRip 720p
Дата кодирования : UTC 2012-08-05 12:04:44
Программа кодирования : mkvmerge v5.7.0 ('The Whirlwind') built on Jul 8 2012 20:08:51
Библиотека кодирования : libebml v1.2.3 + libmatroska v1.3.0
Видео
Идентификатор : 1
Формат : AVC
Формат/Информация : Advanced Video Codec
Профиль формата : [email protected]
Параметр CABAC формата : Да
Параметр ReFrames формата : 9 кадров
Идентификатор кодека : V_MPEG4/ISO/AVC
Продолжительность : 2 ч. 26 м.
Битрейт : 5928 Кбит/сек
Ширина : 1280 пикселей
Высота : 530 пикселей
Соотношение сторон : 2,40:1
Частота кадров : 25,000 кадров/сек
Цветовое пространство : YUV
Субдискретизация насыщенности : 4:2:0
Битовая глубина : 8 бит
Тип развёртки : Прогрессивная
Бит/(Пиксели*Кадры) : 0.350
Размер потока : 5,91 Гбайт (77%)
Библиотека кодирования : x264 core 125 r2200 999b753
Настройки программы : cabac=1 / ref=9 / deblock=1:-3:-3 / analyse=0x3:0x113 / me=umh / subme=10 / psy=1 / psy_rd=1.00:0.00 / mixed_ref=1 / me_range=32 / chroma_me=1 / trellis=2 / 8x8dct=1 / cqm=0 / deadzone=21,11 / fast_pskip=0 / chroma_qp_offset=-2 / threads=6 / lookahead_threads=1 / sliced_threads=0 / nr=0 / decimate=1 / interlaced=0 / bluray_compat=0 / constrained_intra=0 / bframes=3 / b_pyramid=2 / b_adapt=2 / b_bias=0 / direct=3 / weightb=1 / open_gop=0 / weightp=2 / keyint=250 / keyint_min=24 / scenecut=40 / intra_refresh=0 / rc=2pass / mbtree=0 / bitrate=5928 / ratetol=1.0 / qcomp=0.60 / qpmin=10 / qpmax=51 / qpstep=4 / cplxblur=20.0 / qblur=0.5 / ip_ratio=1.40 / pb_ratio=1.30 / aq=1:1.00
Default : Да
Forced : Нет
Аудио #1
Идентификатор : 2
Формат : AC-3
Формат/Информация : Audio Coding 3
Расширение режима : CM (complete main)
Параметр Endianness формата : Big
Идентификатор кодека : A_AC3
Продолжительность : 2 ч. 26 м.
Вид битрейта : Постоянный
Битрейт : 192 Кбит/сек
Каналы : 2 канала
Расположение каналов : Front: L R
Частота : 48,0 КГц
Битовая глубина : 16 бит
Размер потока : 201 Мбайт (3%)
Заголовок : Дубляж
Язык : Russian
Default : Да
Forced : Нет
Аудио #2
Идентификатор : 3
Формат : AC-3
Формат/Информация : Audio Coding 3
Расширение режима : CM (complete main)
Параметр Endianness формата : Big
Идентификатор кодека : A_AC3
Продолжительность : 2 ч. 26 м.
Вид битрейта : Постоянный
Битрейт : 448 Кбит/сек
Каналы : 6 каналов
Расположение каналов : Front: L C R, Side: L R, LFE
Частота : 48,0 КГц
Битовая глубина : 16 бит
Размер потока : 469 Мбайт (6%)
Заголовок : Film Prestige
Язык : Russian
Default : Нет
Forced : Нет
Аудио #3
Идентификатор : 4
Формат : AC-3
Формат/Информация : Audio Coding 3
Расширение режима : CM (complete main)
Параметр Endianness формата : Big
Идентификатор кодека : A_AC3
Продолжительность : 2 ч. 26 м.
Вид битрейта : Постоянный
Битрейт : 448 Кбит/сек
Каналы : 6 каналов
Расположение каналов : Front: L C R, Side: L R, LFE
Частота : 48,0 КГц
Битовая глубина : 16 бит
Размер потока : 469 Мбайт (6%)
Заголовок : DVD Magic
Язык : Russian
Default : Нет
Forced : Нет
Аудио #4
Идентификатор : 5
Формат : AC-3
Формат/Информация : Audio Coding 3
Расширение режима : CM (complete main)
Параметр Endianness формата : Big
Идентификатор кодека : A_AC3
Продолжительность : 2 ч. 26 м.
Вид битрейта : Постоянный
Битрейт : 448 Кбит/сек
Каналы : 6 каналов
Расположение каналов : Front: L C R, Side: L R, LFE
Частота : 48,0 КГц
Битовая глубина : 16 бит
Размер потока : 469 Мбайт (6%)
Заголовок : Original
Язык : English
Default : Нет
Forced : Нет
Текст #1
Идентификатор : 6
Формат : UTF-8
Идентификатор кодека : S_TEXT/UTF8
Идентификатор кодека/Информация : UTF-8 Plain Text
Язык : Russian
Default : Нет
Forced : Нет
Текст #2
Идентификатор : 7
Формат : UTF-8
Идентификатор кодека : S_TEXT/UTF8
Идентификатор кодека/Информация : UTF-8 Plain Text
Язык : English
Default : Нет
Forced : Нет

Скриншоты

[Цитировать]



Показать сообщения:    

Текущее время: 06-Дек 08:50

Часовой пояс: UTC + 3


Вы не можете начинать темы
Вы не можете отвечать на сообщения
Вы не можете редактировать свои сообщения
Вы не можете удалять свои сообщения
Вы не можете голосовать в опросах
Вы не можете прикреплять файлы к сообщениям
Вы не можете скачивать файлы

!ВНИМАНИЕ!
Сайт не предоставляет электронные версии произведений, а занимается лишь коллекционированием и каталогизацией ссылок, присылаемых и публикуемых на форуме нашими читателями. Если вы являетесь правообладателем какого-либо представленного материала и не желаете, чтобы ссылка на него находилась в нашем каталоге, свяжитесь с нами, и мы незамедлительно удалим ее. Файлы для обмена на трекере предоставлены пользователями сайта, и администрация не несет ответственности за их содержание. Просьба не заливать файлы, защищенные авторскими правами, а также файлы нелегального содержания!