[ Сегодня идет свободное скачивание без начисления Download ]


Статистика раздачи
Нет
 
   
 
Top  
 
 
-Азы убийства / Murder101- Русское название: Азы убийства
Оригинальное название: Murder101
Год выпуска: 2013
Производство: США
Жанр: Триллер
Перевод: Многоголосый закадровый, профессиональный
Дата мировой премьеры: 11 октября 2013
Режиссер: Майкл Филлип Эдвардс, Шелдон Робинс
Актеры: Том Сайзмор, Данте Баско, Шелдон Робинс, Пейдж Ла Пьер, Джасмин Уолтц, Катрин Де Прюм, Доминика Вестлинг, Виктор Уоррен, Доун Морроу, Рай Мур
Описание фильма:
В самом начале фильма «Азы убийства» вкрадчивый закадровый голос сообщает нам, что убийство – противоречивая форма искусства. Оно сродни созиданию – простая и чистая форма искусства. А в это время на экране разворачиваются страшные события: мужчина с маленькой дочкой заходит в магазин, а через несколько минут уже оказывается на холодном кафельном полу с перерезанным горлом. Маленькая Кэти, которая только что потеряла отца, рассказала полиции, что последним, кто разговаривал с папой, был счастливый улыбающийся человек. Это уже третье подобное преступление, причем каждый раз убийце удается уйти незамеченным: ни свидетелей, ни более-менее весомых улик не остается. Служители закона ломают головы над загадкой этого маньяка, и к делу даже подключается следователь, давно вышедший в отставку. Параллельно с расследованием развивается и другая сюжетная линия, главная героиня которой – молодая студентка, которая хочет посвятить свою жизнь криминалистике.

Продолжительность: 01:24:47
Качество видео: WEBRip
Видеокодек: Xvid
Битрейт видео: ~1021 kb/s
Размер кадра: 720x304
Аудиокодек: MP3, 2 канала
Битрейт аудио: 128 kb/s
Сэмпл: Скачать

MediaInfo

Полное имя : \\Pc-2\g\фильмы\Murder101.2013.P.WEBRip.avi
Формат : AVI
Формат/Информация : Audio Video Interleave
Размер файла : 703 Мбайт
Продолжительность : 1 ч. 24 м.
Общий поток : 1160 Кбит/сек
Программа кодирования : VirtualDubMod 1.5.10.3 | www.virtualdub-fr.org || (build 2550/release)
Библиотека кодирования : VirtualDubMod build 2550/release
Видео
Идентификатор : 0
Формат : MPEG-4 Visual
Профиль формата : Advanced Simple@L5
Параметр BVOP формата : 2
Параметр QPel формата : Нет
Параметр GMC формата : Без точки перехода
Параметр матрицы формата : Default (MPEG)
Идентификатор кодека : XVID
Идентификатор кодека/Подсказка : XviD
Продолжительность : 1 ч. 24 м.
Битрейт : 1022 Кбит/сек
Ширина : 720 пикселей
Высота : 304 пикселя
Соотношение сторон : 2,35:1
Частота кадров : 25,000 кадров/сек
Цветовое пространство : YUV
Субдискретизация насыщенности : 4:2:0
Битовая глубина : 8 бит
Тип развёртки : Прогрессивная
Метод сжатия : С потерями
Бит/(Пиксели*Кадры) : 0.187
Размер потока : 620 Мбайт (88%)
Библиотека кодирования : XviD 1.2.1 (UTC 2008-12-04)
Аудио
Идентификатор : 1
Формат : MPEG Audio
Версия формата : Version 1
Профиль формата : Layer 3
Идентификатор кодека : 55
Идентификатор кодека/Подсказка : MP3
Продолжительность : 1 ч. 24 м.
Вид битрейта : Постоянный
Битрейт : 128 Кбит/сек
Каналы : 2 канала
Частота : 48,0 КГц
Метод сжатия : С потерями
Размер потока : 77,6 Мбайт (11%)
Выравнивание : Соединение по промежуткам
Продолжительность промежутка : 40 мс. (1,00 видеокадр)
Время предзагрузки промежутка : 504 мс.
Библиотека кодирования : LAME3.98r
Настройки программы : -m s -V 4 -q 2 -lowpass 17 -b 128
Время раздачи: 24/7 - круглосуточно

[Цитировать]

Топик был перенесен из форума Новинки кинопроката в форум Триллер
Henkok



Показать сообщения:    

Текущее время: 07-Дек 13:38

Часовой пояс: UTC + 3


Вы не можете начинать темы
Вы не можете отвечать на сообщения
Вы не можете редактировать свои сообщения
Вы не можете удалять свои сообщения
Вы не можете голосовать в опросах
Вы не можете прикреплять файлы к сообщениям
Вы не можете скачивать файлы

!ВНИМАНИЕ!
Сайт не предоставляет электронные версии произведений, а занимается лишь коллекционированием и каталогизацией ссылок, присылаемых и публикуемых на форуме нашими читателями. Если вы являетесь правообладателем какого-либо представленного материала и не желаете, чтобы ссылка на него находилась в нашем каталоге, свяжитесь с нами, и мы незамедлительно удалим ее. Файлы для обмена на трекере предоставлены пользователями сайта, и администрация не несет ответственности за их содержание. Просьба не заливать файлы, защищенные авторскими правами, а также файлы нелегального содержания!