[ Сегодня идет свободное скачивание без начисления Download ]


Статистика раздачи
Нет
 
   
 
Top  
 
 
-Любовь на кончиках пальцев / Populaire (2012) BDRip- Русское название: Любовь на кончиках пальцев
Оригинальное название: Populaire
Год выпуска: 2012
Производство: Франция / Les Productions du Tresor, Compagnie Cinematographique Europeenne, La, France 3 Cinema
Жанр: Мелодрама, Комедия
Перевод: Многоголосый закадровый, профессиональный [Лицензия]
Субтитры: Вшитые отключаемые
Язык субтитров: Русский
Дата мировой премьеры: 17 ноября 2012
Дата российской премьеры: 31 января 2013, «Премиум Фильм»
Дата выхода DVD релиза: 7 марта 2013, «CP Дистрибуция»
Режиссер: Режис Ройнсар
Актеры: Ромен Дюрис, Дебора Франсуа, Беренис Бежо, Шон Бенсон, Мелани Бернье, Николя Бедо, Миу-Миу, Эдди Митчелл, Фредерик Пьеро, Федор Аткин
Описание фильма:
Роза живет в провинции со своим отцом, обручена с самым выгодным женихом их городка, и казалось бы, ей предначертана тихая спокойная жизнь домохозяйки. Однако все меняется, когда она встречает красавца Луиса: вместе им предстоит покорить весь мир.

Продолжительность: 01:51:13
Качество видео: BDRip [MysTeRy]
Видеокодек: MPEG-4 AVC/H.264
Битрейт видео: ~2354 Кбит/сек
Размер кадра: 1024 x 436
Аудиокодек: AC3 5.1
Битрейт аудио: 448 Кбит/сек

MediaInfo:

Общее
Уникальный идентификатор         : 205687191915384784599848081665853031339 (0x9ABDE986820025D89E5199AD0EAD03AB)
Полное имя                       : H:\Lyubov'.na.konchikah.pal'tsev.2012.P.x264.BDRip-MysTeRy.mkv
Формат                           : Matroska
Версия формата                   : Version 4 / Version 2
Размер файла                     : 2,18 Гбайт
Продолжительность                : 1 ч. 51 м.
Общий поток                      : 2803 Кбит/сек
Название фильма                  : Lyubov'.na.konchikah.pal'tsev.2012.P.x264.BDRip-MysTeRy
Дата кодирования                 : UTC 2013-04-13 06:16:45
Программа кодирования            : mkvmerge v6.1.0 ('Old Devil') built on Mar  2 2013 14:32:37
Библиотека кодирования           : libebml v1.3.0 + libmatroska v1.4.0
Видео
Идентификатор                    : 1
Формат                           : AVC
Формат/Информация                : Advanced Video Codec
Профиль формата                  : [url=mailto:High@L4.1]High@L4.1[/url]
Параметр CABAC формата           : Да
Параметр ReFrames формата        : 12 кадров
Идентификатор кодека             : V_MPEG4/ISO/AVC
Продолжительность                : 1 ч. 51 м.
Битрейт                          : 2354 Кбит/сек
Ширина                           : 1024 пикселя
Высота                           : 436 пикселей
Соотношение сторон               : 2,35:1
Частота кадров                   : 23,976 кадра/сек
Цветовое пространство            : YUV
Субдискретизация насыщенности    : 4:2:0
Битовая глубина                  : 8 бит
Тип развёртки                    : Прогрессивная
Бит/(Пиксели*Кадры)              : 0.220
Размер потока                    : 1,79 Гбайт (82%)
Заголовок                        : ENCODER........: MysTeRy
Библиотека кодирования           : x264 core 130 r2273 b3065e6
Настройки программы              : cabac=1 / ref=12 / deblock=1:-3:-3 / analyse=0x3:0x133 / me=umh / subme=10 / psy=1 / psy_rd=1.00:0.00 / mixed_ref=1 / me_range=32 / chroma_me=1 / trellis=2 / 8x8dct=1 / cqm=0 / deadzone=21,11 / fast_pskip=0 / chroma_qp_offset=-2 / threads=12 / lookahead_threads=2 / sliced_threads=0 / nr=0 / decimate=0 / interlaced=0 / bluray_compat=0 / constrained_intra=0 / bframes=8 / b_pyramid=2 / b_adapt=2 / b_bias=0 / direct=3 / weightb=1 / open_gop=0 / weightp=2 / keyint=250 / keyint_min=23 / scenecut=40 / intra_refresh=0 / rc_lookahead=60 / rc=2pass / mbtree=0 / bitrate=2354 / ratetol=1.0 / qcomp=0.70 / qpmin=0 / qpmax=69 / qpstep=4 / cplxblur=20.0 / qblur=0.5 / vbv_maxrate=50000 / vbv_bufsize=61400 / nal_hrd=none / ip_ratio=1.40 / pb_ratio=1.30 / aq=2:0.80
Язык                             : French
Default                          : Да
Forced                           : Нет
Основные цвета                   : BT.709-5, BT.1361, IEC 61966-2-4, SMPTE RP177
Характеристики трансфера         : BT.709-5, BT.1361
Коэффициенты матрицы             : BT.709-5, BT.1361, IEC 61966-2-4 709, SMPTE RP177
Аудио
Идентификатор                    : 2
Формат                           : AC-3
Формат/Информация                : Audio Coding 3
Расширение режима                : CM (complete main)
Идентификатор кодека             : A_AC3
Продолжительность                : 1 ч. 51 м.
Вид битрейта                     : Постоянный
Битрейт                          : 448 Кбит/сек
Каналы                           : 6 каналов
Расположение каналов             : Front: L C R, Side: L R, LFE
Частота                          : 48,0 КГц
Битовая глубина                  : 16 бит
Метод сжатия                     : С потерями
Размер потока                    : 356 Мбайт (16%)
Заголовок                        : P
Язык                             : Russian
Default                          : Да
Forced                           : Нет
Текст
Идентификатор                    : 3
Формат                           : PGS
Режим смешивания                 : zlib
Идентификатор кодека             : S_HDMV/PGS
Идентификатор кодека/Информация  : The same subtitle format used on BDs/HD-DVDs
Язык                             : Russian
Default                          : Нет
Forced                           : Нет
Меню
00:00:00.000                     : fr:Chapter 00
00:02:58.886                     : fr:Chapter 01
00:08:29.675                     : fr:Chapter 02
00:16:30.780                     : fr:Chapter 03
00:20:30.563                     : fr:Chapter 04
00:27:07.792                     : fr:Chapter 05
00:34:31.485                     : fr:Chapter 06
00:42:01.768                     : fr:Chapter 07
00:50:10.340                     : fr:Chapter 08
00:59:32.443                     : fr:Chapter 09
01:03:11.537                     : fr:Chapter 10
01:12:37.728                     : fr:Chapter 11
01:23:49.942                     : fr:Chapter 12
01:30:13.323                     : fr:Chapter 13
01:39:56.282                     : fr:Chapter 14
01:46:59.329                     : fr:Chapter 15

x264:

avs [info]: 1024x436p 1:1 @ 2500000/104271 fps (cfr)
x264 [info]: using SAR=1/1
x264 [info]: using cpu capabilities: MMX2 SSE2Fast SSSE3 SSE4.2 AVX
x264 [info]: profile High, level 4.1
x264 [info]: frame I:1802  Avg QP:14.73  size: 81242
x264 [info]: frame P:33047 Avg QP:17.69  size: 27036
x264 [info]: frame B:124956 Avg QP:19.52  size:  7354
x264 [info]: consecutive B-frames:  1.9%  4.3%  4.3% 16.7% 19.1% 36.1%  9.1%  6.5%  2.0%
x264 [info]: mb I  I16..4:  3.1% 77.0% 19.9%
x264 [info]: mb P  I16..4:  0.5%  7.1%  1.7%  P16..4: 34.5% 26.9% 21.1%  1.1%  0.4%    skip: 6.8%
x264 [info]: mb B  I16..4:  0.0%  0.4%  0.2%  B16..8: 40.1% 13.0%  4.3%  direct: 5.2%  skip:36.8%  L0:43.0% L1:43.8% BI:13.2%
x264 [info]: 8x8 transform intra:75.4% inter:55.8%
x264 [info]: direct mvs  spatial:98.8% temporal:1.2%
x264 [info]: coded y,uvDC,uvAC intra: 90.4% 92.4% 82.6% inter: 27.7% 21.4% 11.8%
x264 [info]: i16 v,h,dc,p: 53% 13%  9% 25%
x264 [info]: i8 v,h,dc,ddl,ddr,vr,hd,vl,hu: 17%  9%  8%  9% 12% 12% 11% 11% 11%
x264 [info]: i4 v,h,dc,ddl,ddr,vr,hd,vl,hu: 35%  6%  4%  7% 11% 10%  9%  8%  8%
x264 [info]: i8c dc,h,v,p: 46% 18% 20% 16%
x264 [info]: Weighted P-Frames: Y:1.8% UV:0.8%
x264 [info]: ref P L0: 42.9% 10.1% 19.8%  6.3%  6.0%  3.9%  3.7%  1.7%  1.8%  1.3%  1.4%  1.1%  0.1%  0.0%
x264 [info]: ref B L0: 70.7% 12.8%  5.7%  3.2%  2.4%  1.8%  1.3%  0.9%  0.7%  0.4%  0.2%
x264 [info]: ref B L1: 92.6%  7.4%
x264 [info]: kb/s:2351.04
x264 [total]: encoded 159805 frames, 9.45 fps, 2351.04 kb/s
Скриншоты:

[Цитировать]

Топик был перенесен из форума Новинки кинопроката в форум Мелодрама
Henkok



Показать сообщения:    

Текущее время: 25-Апр 01:01

Часовой пояс: UTC + 6


Вы не можете начинать темы
Вы не можете отвечать на сообщения
Вы не можете редактировать свои сообщения
Вы не можете удалять свои сообщения
Вы не можете голосовать в опросах
Вы не можете прикреплять файлы к сообщениям
Вы не можете скачивать файлы

!ВНИМАНИЕ!
Сайт не предоставляет электронные версии произведений, а занимается лишь коллекционированием и каталогизацией ссылок, присылаемых и публикуемых на форуме нашими читателями. Если вы являетесь правообладателем какого-либо представленного материала и не желаете, чтобы ссылка на него находилась в нашем каталоге, свяжитесь с нами, и мы незамедлительно удалим ее. Файлы для обмена на трекере предоставлены пользователями сайта, и администрация не несет ответственности за их содержание. Просьба не заливать файлы, защищенные авторскими правами, а также файлы нелегального содержания!