[ Сегодня идет свободное скачивание без начисления Download ]


Статистика раздачи
Нет
 
   
 
Top  
 
 
-Тихая гавань / Safe Haven (2013) DVDRip
«Важно не то, от чего ты бежишь, а то, к чему ты приходишь»
- Русское название: Тихая гавань
Оригинальное название: Safe Haven
Год выпуска: 2013
Производство: США / Relativity Media, Temple Hill Entertainment, Nicholas Sparks Productions
Жанр: Триллер, Драма, Мелодрама, Детектив
Перевод: Дублированный [лицензия]
Субтитры: Отсутствуют
Дата мировой премьеры: 13 февраля 2013
Дата российской премьеры: 14 февраля 2013, «Парадиз»
Дата выхода DVD релиза: 16 апреля 2013, «Парадиз / Активижен»
Дата выхода Blu-Ray релиза: 16 апреля 2013, «Парадиз / Активижен»
Режиссер: Лассе Халльстрём
Актеры: Джош Дюамель, Джулианна Хаф, Коби Смолдерс, Дэвид Лайонс, Ирен Циглер, Джон Кохлер, Тим Парати, Джулия Пагано, Хуан Пьедраита, Ред Уэст
Описание фильма:
Кэти много лет страдала от жестокости мужа. Потеряв надежду на спасение, она совершила отчаянный побег и обрела «тихую гавань» в маленьком спокойном южном городке. Но готова ли Кэти к новым отношениям? Способна ли вновь поверить мужчине, понять его и полюбить? Даже если речь идет о таком обаятельном человеке, как молодой вдовец Алекс Уитли. Алекс и Кэти идут по тонкому льду неизвестности, — а между тем муж Кэти уже начал ее поиски.
[/ur][url=http://www.imdb.com/title/tt1702439/]
Продолжительность: 01:50:53
Качество видео: DVDRip [MysTeRy]
Видеокодек: MPEG-4 AVC/H.264
Битрейт видео: ~2259 Кбит/сек
Размер кадра: 720 x 568@1024 x 568
Аудиокодек: AC3 5.1
Битрейт аудио: 384 Кбит/сек

MediaInfo:

Общее
Уникальный идентификатор         : 249431676657211201208840493694437346406 (0xBBA6CB23D150B2209DFE2A05C4C4CC66)
Полное имя                       : H:\Tihaja.gavan.2013.D.x264.DVDRip-MysTeRy.mkv
Формат                           : Matroska
Версия формата                   : Version 4 / Version 2
Размер файла                     : 2,05 Гбайт
Продолжительность                : 1 ч. 50 м.
Общий поток                      : 2644 Кбит/сек
Название фильма                  : Tihaja.gavan.2013.D.x264.DVDRip-MysTeRy
Дата кодирования                 : UTC 2013-04-13 12:42:50
Программа кодирования            : mkvmerge v6.1.0 ('Old Devil') built on Mar  2 2013 14:32:37
Библиотека кодирования           : libebml v1.3.0 + libmatroska v1.4.0
Видео
Идентификатор                    : 1
Формат                           : AVC
Формат/Информация                : Advanced Video Codec
Профиль формата                  : [url=mailto:High@L4.1]High@L4.1[/url]
Параметр CABAC формата           : Да
Параметр ReFrames формата        : 11 кадров
Идентификатор кодека             : V_MPEG4/ISO/AVC
Продолжительность                : 1 ч. 50 м.
Битрейт                          : 2259 Кбит/сек
Ширина                           : 720 пикселей
Высота                           : 568 пикселей
Соотношение сторон               : 16:9
Частота кадров                   : 25,000 кадров/сек
Цветовое пространство            : YUV
Субдискретизация насыщенности    : 4:2:0
Битовая глубина                  : 8 бит
Тип развёртки                    : Прогрессивная
Бит/(Пиксели*Кадры)              : 0.221
Размер потока                    : 1,71 Гбайт (83%)
Заголовок                        : ENCODER........: MysTeRy
Библиотека кодирования           : x264 core 130 r2273 b3065e6
Настройки программы              : cabac=1 / ref=11 / deblock=1:-3:-3 / analyse=0x3:0x133 / me=umh / subme=10 / psy=1 / psy_rd=1.00:0.10 / mixed_ref=1 / me_range=32 / chroma_me=1 / trellis=2 / 8x8dct=1 / cqm=0 / deadzone=21,11 / fast_pskip=0 / chroma_qp_offset=-3 / threads=12 / lookahead_threads=2 / sliced_threads=0 / nr=0 / decimate=0 / interlaced=0 / bluray_compat=0 / constrained_intra=0 / bframes=8 / b_pyramid=2 / b_adapt=2 / b_bias=0 / direct=3 / weightb=1 / open_gop=0 / weightp=2 / keyint=250 / keyint_min=25 / scenecut=40 / intra_refresh=0 / rc_lookahead=60 / rc=2pass / mbtree=0 / bitrate=2259 / ratetol=1.0 / qcomp=0.70 / qpmin=0 / qpmax=69 / qpstep=4 / cplxblur=20.0 / qblur=0.5 / vbv_maxrate=50000 / vbv_bufsize=61400 / nal_hrd=none / ip_ratio=1.40 / pb_ratio=1.30 / aq=1:0.80
Язык                             : English
Default                          : Да
Forced                           : Нет
Основные цвета                   : BT.709-5, BT.1361, IEC 61966-2-4, SMPTE RP177
Характеристики трансфера         : BT.709-5, BT.1361
Коэффициенты матрицы             : BT.709-5, BT.1361, IEC 61966-2-4 709, SMPTE RP177
Аудио
Идентификатор                    : 2
Формат                           : AC-3
Формат/Информация                : Audio Coding 3
Расширение режима                : CM (complete main)
Идентификатор кодека             : A_AC3
Продолжительность                : 1 ч. 50 м.
Вид битрейта                     : Постоянный
Битрейт                          : 384 Кбит/сек
Каналы                           : 6 каналов
Расположение каналов             : Front: L C R, Side: L R, LFE
Частота                          : 48,0 КГц
Битовая глубина                  : 16 бит
Метод сжатия                     : С потерями
Размер потока                    : 305 Мбайт (15%)
Заголовок                        : Dub
Язык                             : Russian
Default                          : Да
Forced                           : Нет
Меню
00:00:00.000                     : en:Chapter 00
00:02:58.886                     : en:Chapter 01
00:08:29.675                     : en:Chapter 02
00:16:30.780                     : en:Chapter 03
00:20:30.563                     : en:Chapter 04
00:27:07.792                     : en:Chapter 05
00:34:31.485                     : en:Chapter 06
00:42:01.768                     : en:Chapter 07
00:50:10.340                     : en:Chapter 08
00:59:32.443                     : en:Chapter 09
01:03:11.537                     : en:Chapter 10
01:12:37.728                     : en:Chapter 11
01:23:49.942                     : en:Chapter 12
01:30:13.323                     : en:Chapter 13
01:39:56.282                     : en:Chapter 14
01:46:59.329                     : en:Chapter 15

x264:

avs [info]: 720x568p 64:45 @ 25/1 fps (cfr)
x264 [info]: using SAR=64/45
x264 [info]: using cpu capabilities: MMX2 SSE2Fast SSSE3 SSE4.2 AVX
x264 [info]: profile High, level 4.1
x264 [info]: frame I:1228  Avg QP:14.24  size: 59606
x264 [info]: frame P:39831 Avg QP:16.88  size: 22778
x264 [info]: frame B:125266 Avg QP:19.38  size:  7164
x264 [info]: consecutive B-frames:  3.1%  4.0% 14.6% 17.0%  9.5% 49.3%  1.6%  0.4%  0.5%
x264 [info]: mb I  I16..4:  9.5% 71.9% 18.6%
x264 [info]: mb P  I16..4:  2.9% 17.8%  2.2%  P16..4: 35.3% 20.9% 13.8%  0.6%  0.2%    skip: 6.3%
x264 [info]: mb B  I16..4:  0.3%  1.2%  0.2%  B16..8: 37.3% 13.1%  3.3%  direct: 8.1%  skip:36.5%  L0:38.0% L1:40.3% BI:21.7%
x264 [info]: 8x8 transform intra:76.0% inter:61.6%
x264 [info]: direct mvs  spatial:98.1% temporal:1.9%
x264 [info]: coded y,uvDC,uvAC intra: 81.4% 84.5% 72.1% inter: 27.0% 29.2% 14.3%
x264 [info]: i16 v,h,dc,p: 57% 11%  8% 24%
x264 [info]: i8 v,h,dc,ddl,ddr,vr,hd,vl,hu: 25%  9% 11%  6%  9% 13%  8% 11%  9%
x264 [info]: i4 v,h,dc,ddl,ddr,vr,hd,vl,hu: 26%  7%  5%  7% 12% 15%  9% 10%  8%
x264 [info]: i8c dc,h,v,p: 41% 17% 28% 14%
x264 [info]: Weighted P-Frames: Y:3.5% UV:1.7%
x264 [info]: ref P L0: 49.2% 10.8% 16.7%  5.7%  4.8%  3.1%  2.9%  1.8%  1.7%  1.4%  1.4%  0.4%  0.0%
x264 [info]: ref B L0: 80.6%  9.8%  3.5%  2.0%  1.3%  0.9%  0.8%  0.6%  0.4%  0.2%
x264 [info]: ref B L1: 94.8%  5.2%
x264 [info]: kb/s:2258.12
x264 [total]: encoded 166325 frames, 11.65 fps, 2258.12 kb/s
Скриншоты:


Время раздачи: 16.30-23.00 до 5 скачавших

[Цитировать]

Топик был перенесен из форума Новинки кинопроката в форум Триллер
Henkok



Показать сообщения:    

Текущее время: 23-Фев 17:06

Часовой пояс: UTC + 3


Вы не можете начинать темы
Вы не можете отвечать на сообщения
Вы не можете редактировать свои сообщения
Вы не можете удалять свои сообщения
Вы не можете голосовать в опросах
Вы не можете прикреплять файлы к сообщениям
Вы не можете скачивать файлы

!ВНИМАНИЕ!
Сайт не предоставляет электронные версии произведений, а занимается лишь коллекционированием и каталогизацией ссылок, присылаемых и публикуемых на форуме нашими читателями. Если вы являетесь правообладателем какого-либо представленного материала и не желаете, чтобы ссылка на него находилась в нашем каталоге, свяжитесь с нами, и мы незамедлительно удалим ее. Файлы для обмена на трекере предоставлены пользователями сайта, и администрация не несет ответственности за их содержание. Просьба не заливать файлы, защищенные авторскими правами, а также файлы нелегального содержания!