[ Сегодня идет свободное скачивание без начисления Download ]


Статистика раздачи
Нет
 
   
 
Top  
 
 
Сексуальные хроники французской семьи / Chroniques sexuelles d'une famille d'aujourd'hui
? Год выпуска: 2012
? Страна: Франция
? Производство: Canal+, Monkey Pack Films, Supersonic Productions
? Жанр: мелодрама, комедия
? Режиссер: Жан-Марк Барр, Паскаль Арнольд
? В ролях: Матиас Меллул, Валери Маэс, Стефан Эрсоен, Лейла Денио, Натан Дювал, Ян Бриан, Аделин Ребейляр, Грегори Аннони, Летиция Фавар, Бенжамин Уо
? Перевод: Профессиональный (многоголосый, закадровый) + Оригинал (французский)
? Субтитры: Отсутствуют
? Описание: Рутинная жизнь современной семьи претерпевает основательную встряску, когда младший сын Роман оказывается пойман в классе, мастурбирующим и одновременно снимающим себя на камеру в мобильном телефоне. Роману грозит исключение из школы… Выясняется, что его действия — это часть игры, весьма популярной у школьников. До этих пор сексуальная тематика была табуирована в его семье, но теперь она становится центром обсуждения.

Внимание!!! Фильм предназначен только для просмотра лицам 18+
? Качество: DVDRip
? Продолжительность: 01:16:05
? Формат: AVI
? Видео кодек: XviD
? Аудио кодек: AC3
? Видео: 720 x 384, 25.00 fps, XviD, ~1790 kbps avg, 0.259 bit/pixel
? Аудио: 48 kHz, AC3 Dolby Digital, 6 (L,C,R,l,r) + LFE ch, ~384.00 kbps avg - |MVO|
? Аудио: 48 kHz, AC3 Dolby Digital, 6 (L,C,R,l,r) + LFE ch, ~384.00 kbps avg - |FRA|
Премьера (мир): 9 мая 2012
Премьера (РФ): 15 ноября 2012, «Другое кино»
Релиз на DVD: 5 декабря 2012, «Кармен Видео»

Media Info

General
Complete name                    : D:\Seksualnye.hroniki.francuzskoj.semi.2012.P.DVDRip.avi
Format                           : AVI
Format/Info                      : Audio Video Interleave
File size                        : 1.37 GiB
Duration                         : 1h 16mn
Overall bit rate                 : 2 572 Kbps
Movie name                       : Seksualnye.hroniki.francuzskoj.semi.2012.P.DVDRip.IRONCLUB
Director                         : IRONCLUB
Genre                            : Comedy / Romance
Writing application              : VirtualDubMod 1.5.10.2 (build 2540/release)
Original source form/Name        : Movie
Copyright                        : http://ironclub.tv/
Video
ID                               : 0
Format                           : MPEG-4 Visual
Format profile                   : Advanced Simple@L5
Format settings, BVOP            : 2
Format settings, QPel            : No
Format settings, GMC             : No warppoints
Format settings, Matrix          : Custom
Codec ID                         : XVID
Codec ID/Hint                    : XviD
Duration                         : 1h 16mn
Bit rate                         : 1 790 Kbps
Width                            : 720 pixels
Height                           : 384 pixels
Display aspect ratio             : 1.875
Frame rate                       : 25.000 fps
Color space                      : YUV
Chroma subsampling               : 4:2:0
Bit depth                        : 8 bits
Scan type                        : Progressive
Compression mode                 : Lossy
Bits/(Pixel*Frame)               : 0.259
Stream size                      : 974 MiB (70%)
Writing library                  : XviD 1.2.1 (UTC 2008-12-04)
Audio #1
ID                               : 1
Format                           : AC-3
Format/Info                      : Audio Coding 3
Mode extension                   : CM (complete main)
Codec ID                         : 2000
Duration                         : 1h 16mn
Bit rate mode                    : Constant
Bit rate                         : 384 Kbps
Channel(s)                       : 6 channels
Channel positions                : Front: L C R, Side: L R, LFE
Sampling rate                    : 48.0 KHz
Bit depth                        : 16 bits
Compression mode                 : Lossy
Delay relative to video          : 1s 600ms
Stream size                      : 209 MiB (15%)
Alignment                        : Split accross interleaves
Interleave, duration             : 40 ms (1.00 video frame)
Interleave, preload duration     : 500 ms
Audio #2
ID                               : 2
Format                           : AC-3
Format/Info                      : Audio Coding 3
Mode extension                   : CM (complete main)
Codec ID                         : 2000
Duration                         : 1h 16mn
Bit rate mode                    : Constant
Bit rate                         : 384 Kbps
Channel(s)                       : 6 channels
Channel positions                : Front: L C R, Side: L R, LFE
Sampling rate                    : 48.0 KHz
Bit depth                        : 16 bits
Compression mode                 : Lossy
Delay relative to video          : 1s 600ms
Stream size                      : 209 MiB (15%)
Alignment                        : Split accross interleaves
Interleave, duration             : 40 ms (1.00 video frame)
Interleave, preload duration     : 500 ms

Скриншоты



[Цитировать]

Топик был перенесен из форума Новинки кинопроката в форум Мелодрама
Henkok



Показать сообщения:    

Текущее время: 09-Дек 06:53

Часовой пояс: UTC + 3


Вы не можете начинать темы
Вы не можете отвечать на сообщения
Вы не можете редактировать свои сообщения
Вы не можете удалять свои сообщения
Вы не можете голосовать в опросах
Вы не можете прикреплять файлы к сообщениям
Вы не можете скачивать файлы

!ВНИМАНИЕ!
Сайт не предоставляет электронные версии произведений, а занимается лишь коллекционированием и каталогизацией ссылок, присылаемых и публикуемых на форуме нашими читателями. Если вы являетесь правообладателем какого-либо представленного материала и не желаете, чтобы ссылка на него находилась в нашем каталоге, свяжитесь с нами, и мы незамедлительно удалим ее. Файлы для обмена на трекере предоставлены пользователями сайта, и администрация не несет ответственности за их содержание. Просьба не заливать файлы, защищенные авторскими правами, а также файлы нелегального содержания!