[ Сегодня идет свободное скачивание без начисления Download ]


Статистика раздачи
Нет
 
   
 
Top  
 
 
-Таинственный лес / The Village (2004) HDTVRip- Русское название: Таинственный лес
Оригинальное название: The Village
Год выпуска: 2004
Производство: США
Жанр: Триллер, Мелодрама
Описание фильма:
Пенсильвания. Жители деревни Ковингтон верят, что в местном лесу обитают мифические существа, и никогда не входят в лес и не покидают своей деревни. Но однажды любознательный и своевольный Люций Хант, уставший жить в полной изоляции от внешнего мира, решает нарушить табу и выходит за пределы деревни...
Режиссер: М. Найт Шьямалан
Актеры: Брайс Даллас Ховард (Ivy Walker,), Хоакин Феникс (Lucius Hunt,), Эдриан Броуди (Noah Percy,), Уильям Хёрт (Edward Walker,), Сигурни Уивер (Alice Hunt,), Брендан Глисон (August Nicholson,), Черри Джонс (Mrs. Clack), Селия Уэстон (Vivian Percy), Джон Кристофер Джонс (Robert Percy), Фрэнк Коллисон (Victor), Джейн Эткинсон (Tabitha Walker), Джуди Грир (Kitty Walker)
Продолжительность: 01:47:51
Перевод: Дублированный + 2х многоголосый закадровый + двухголосый закадровый + одноголосый закадровый
Язык субтитров: Русские, Английские
Вид субтитров: Вшитые отключаемые

Дата мировой премьеры: 26.07.2004
Дата выхода DVD релиза: 29.07.2004
Видеокодек: MPEG-4 AVC/H.264
Битрейт видео: ~ 5 210 Kbps
Размер кадра: 1280x694
Качество видео: HDTVRip 720p
Аудиокодек: AC3 5.1
Битрейт аудио: 384 kb\s
Аудио №1: Русский; AC3; 48 kHz, 384 Kbps; CBR; 6 ch |Dub
Аудио №2: Русский; AC3; 48 kHz, 192 Kbps; CBR; 2 ch |MVO|
Аудио №3: Русский; AC3; 48 kHz, 448 Kbps; CBR; 6 ch |MVO| trans-mg
Аудио №4: Русский; AC3; 48 kHz, 448 Kbps; CBR; 6 ch |DVO| Tycoon-studio
Аудио №5: Русский; AC3; 48 kHz, 448 Kbps; CBR; 6 ch |AVO| Евгений Рудой
Аудио №6: Англйский; AC3; 48 kHz, 448 Kbps; CBR; 6 ch |Оригинальная дорожка|

MediaInfo

Complete name : The Village.2004.x264.HDTVRip.720p.mkv
Format : Matroska
File size : 5.83 GiB
Duration : 1h 47mn
Overall bit rate : 7 732 Kbps
Encoded date : UTC 2011-01-06 23:04:03
Writing application : mkvmerge v3.3.0 ('Language') built on Mar 24 2010 14:59:24
Writing library : libebml v0.8.0 + libmatroska v0.9.0
Video #1
ID : 1
Format : AVC
Format/Info : Advanced Video Codec
Format profile : [email protected]
Format settings, CABAC : Yes
Format settings, ReFrames : 5 frames
Muxing mode : Container [email protected]
Codec ID : V_MPEG4/ISO/AVC
Duration : 1h 47mn
Bit rate : 5 210 Kbps
Nominal bit rate : 5 350 Kbps
Width : 1 280 pixels
Height : 694 pixels
Display aspect ratio : 16:9
Frame rate : 23.976 fps
Resolution : 8 bits
Colorimetry : 4:2:0
Scan type : Progressive
Bits/(Pixel*Frame) : 0.245
Stream size : 3.92 GiB (67%)
Title : The.Village.2004.720p.HDTV.x264-DON
Writing library : x264 core 84 r1400M 20fa784
Encoding settings : cabac=1 / ref=5 / deblock=1:-3:-3 / analyse=0x3:0x113 / me=umh / subme=10 / psy=1 / psy_rd=1.0:0.0 / mixed_ref=1 / me_range=32 / chroma_me=1 / trellis=2 / 8x8dct=1 / cqm=0 / deadzone=21,11 / fast_pskip=0 / chroma_qp_offset=-2 / threads=8 / sliced_threads=0 / nr=0 / decimate=1 / mbaff=0 / constrained_intra=0 / bframes=6 / b_pyramid=0 / b_adapt=2 / b_bias=0 / direct=3 / wpredb=1 / wpredp=2 / keyint=250 / keyint_min=25 / scenecut=40 / intra_refresh=0 / rc=2pass / mbtree=0 / bitrate=5350 / ratetol=1.0 / qcomp=0.60 / qpmin=10 / qpmax=51 / qpstep=4 / cplxblur=20.0 / qblur=0.5 / ip_ratio=1.40 / pb_ratio=1.30 / aq=1:1.00 / pulldown=0 / nal_hrd=0
Language : English
Audio #2
ID : 2
Format : AC-3
Format/Info : Audio Coding 3
Codec ID : A_AC3
Duration : 1h 47mn
Bit rate mode : Constant
Bit rate : 384 Kbps
Channel(s) : 6 channels
Channel positions : Front: L C R, Surround: L R, LFE
Sampling rate : 48.0 KHz
Stream size : 296 MiB (5%)
Title : Dub AC3 5.1 384kbps
Language : Russian
Audio #3
ID : 3
Format : AC-3
Format/Info : Audio Coding 3
Codec ID : A_AC3
Duration : 1h 47mn
Bit rate mode : Constant
Bit rate : 192 Kbps
Channel(s) : 2 channels
Channel positions : L R
Sampling rate : 48.0 KHz
Stream size : 148 MiB (2%)
Title : mvo (tv) AC3 2.0 192kbps
Language : Russian
Audio #4
ID : 4
Format : AC-3
Format/Info : Audio Coding 3
Codec ID : A_AC3
Duration : 1h 47mn
Bit rate mode : Constant
Bit rate : 448 Kbps
Channel(s) : 6 channels
Channel positions : Front: L C R, Surround: L R, LFE
Sampling rate : 48.0 KHz
Stream size : 346 MiB (6%)
Title : mvo (trans-mg) AC3 5.1 448kbps
Language : Russian
Audio #5
ID : 5
Format : AC-3
Format/Info : Audio Coding 3
Codec ID : A_AC3
Duration : 1h 47mn
Bit rate mode : Constant
Bit rate : 448 Kbps
Channel(s) : 6 channels
Channel positions : Front: L C R, Surround: L R, LFE
Sampling rate : 48.0 KHz
Stream size : 346 MiB (6%)
Title : mvo (Tycoon) AC3 5.1 448kbps
Language : Russian
Audio #6
ID : 6
Format : AC-3
Format/Info : Audio Coding 3
Codec ID : A_AC3
Duration : 1h 47mn
Bit rate mode : Constant
Bit rate : 448 Kbps
Channel(s) : 6 channels
Channel positions : Front: L C R, Surround: L R, LFE
Sampling rate : 48.0 KHz
Stream size : 346 MiB (6%)
Title : avo (Rudoy) AC3 5.1 448kbps
Language : Russian
Audio #7
ID : 7
Format : AC-3
Format/Info : Audio Coding 3
Codec ID : A_AC3
Duration : 1h 47mn
Bit rate mode : Constant
Bit rate : 448 Kbps
Channel(s) : 6 channels
Channel positions : Front: L C R, Surround: L R, LFE
Sampling rate : 48.0 KHz
Stream size : 346 MiB (6%)
Title : AC3 5.1 448kbps
Language : English
Text #8
ID : 8
Format : UTF-8
Codec ID : S_TEXT/UTF8
Codec ID/Info : UTF-8 Plain Text
Title : R5
Language : Russian
Text #9
ID : 9
Format : UTF-8
Codec ID : S_TEXT/UTF8
Codec ID/Info : UTF-8 Plain Text
Title : English
Language : English
Скриншоты:

Время раздачи: 24/7

[Цитировать]



Показать сообщения:    

Текущее время: 04-Дек 04:55

Часовой пояс: UTC + 3


Вы не можете начинать темы
Вы не можете отвечать на сообщения
Вы не можете редактировать свои сообщения
Вы не можете удалять свои сообщения
Вы не можете голосовать в опросах
Вы не можете прикреплять файлы к сообщениям
Вы не можете скачивать файлы

!ВНИМАНИЕ!
Сайт не предоставляет электронные версии произведений, а занимается лишь коллекционированием и каталогизацией ссылок, присылаемых и публикуемых на форуме нашими читателями. Если вы являетесь правообладателем какого-либо представленного материала и не желаете, чтобы ссылка на него находилась в нашем каталоге, свяжитесь с нами, и мы незамедлительно удалим ее. Файлы для обмена на трекере предоставлены пользователями сайта, и администрация не несет ответственности за их содержание. Просьба не заливать файлы, защищенные авторскими правами, а также файлы нелегального содержания!