[ Сегодня идет свободное скачивание без начисления Download ]


Статистика раздачи
Нет
 
   
 
Top  
 
 
-В аду / In Hell (2003) BDRip- Русское название: В аду
Оригинальное название: In Hell
Производство: Millennium Films, Nu-Image Films / США
Год выпуска: 2003
Жанр: Боевик, Драма-Описание фильма:
Здесь сложно выжить, а остаться человеком почти невозможно. Жестоко расправившись с убийцей своей жены, американец Кайл, работающий в России, оказывается в легендарной тюрьме «Кровавая», куда боятся попасть даже самые крутые бандиты и бывалые рецидивисты. Здесь надзиратели — изощренные садисты, а начальство — продажное зверье, устраивающее кровавые бои между заключенными. Но, потеряв на чужой земле любовь, будущее и свободу, Кайл не намерен сгинуть в этой проклятой дыре. Он будет отчаянно бороться за свою жизнь, чтобы однажды выбраться из настоящего ада на Земле, где выживают только сильнейшие.-Режиссер: Ринго Лэм
Актеры: Жан-Клод Ван Дамм, Лоуренс Тейлор, Марни Элтон, Малакай Дэвидсон, Билли Рик, Хорхе Луис Абреу, Ллойд Баттиста, Майкл Бэйли Смит, Роберт ЛаСардо, Карлос Гомес-Продолжительность: 01:37:11
Перевод: Профессиональный (двухголосый, закадровый) + Авторский одноголосый - Карповский
Оригинальна аудиодорожка: английский
Язык субтитров: русские, английские
Вид субтитров: Вшитые отключаемые- -Видеокодек: MPEG-4 AVC/H.264
Битрейт видео: ~4793
Размер кадра: 1280x688 (16:9)
Качество видео: BDRip 720p-Аудио 1: Русский 48 kHz, AC3, 3/2 (L,C,R,l,r) + LFE ch, ~384.00 kbps avg | DVO
Аудио 2: Русский 48 kHz, AC3, 2/0 (L,R) ch, ~192.00 kbps avg | AVO
Аудио 3: Английский 48 kHz, DTS, 3/2 (L,C,R,l,r) + LFE ch, ~1 510 kbps avg | Оригинал
-

MediaInfo:

General
Complete name : O:\In.Hell.2003.720p.BluRay.x264.mkv
Format : Matroska
File size : 4.76 GiB
Duration : 1h 37mn
Overall bit rate : 7 019 Kbps
Encoded date : UTC 2011-06-13 19:01:53
Writing application : mkvmerge v3.0.0 ('Hang up your Hang-Ups') built on Jan 6 2010 22:49:38
Writing library : libebml v0.7.9 + libmatroska v0.8.1
Video
ID : 1
Format : AVC
Format/Info : Advanced Video Codec
Format profile : High@L3.1
Format settings, CABAC : Yes
Format settings, ReFrames : 5 frames
Muxing mode : Container profile=Unknown@3.1
Codec ID : V_MPEG4/ISO/AVC
Duration : 1h 37mn
Bit rate : 4 793 Kbps
Nominal bit rate : 4 938 Kbps
Width : 1 280 pixels
Height : 688 pixels
Display aspect ratio : 1.860
Frame rate : 24.000 fps
Resolution : 8 bits
Colorimetry : 4:2:0
Scan type : Progressive
Bits/(Pixel*Frame) : 0.227
Stream size : 3.25 GiB (68%)
Writing library : x264 core 98 r1649 c54c47d
Encoding settings : cabac=1 / ref=5 / deblock=1:-1:-1 / analyse=0x3:0x133 / me=umh / subme=9 / psy=1 / psy_rd=1.00:0.00 / mixed_ref=1 / me_range=30 / chroma_me=1 / trellis=1 / 8x8dct=1 / cqm=0 / deadzone=21,11 / fast_pskip=0 / chroma_qp_offset=-2 / threads=6 / sliced_threads=0 / nr=0 / decimate=1 / interlaced=0 / constrained_intra=0 / bframes=3 / b_pyramid=2 / b_adapt=1 / b_bias=0 / direct=1 / weightb=1 / weightp=2 / keyint=300 / keyint_min=30 / scenecut=40 / intra_refresh=0 / rc_lookahead=40 / rc=2pass / mbtree=1 / bitrate=4938 / ratetol=1.0 / qcomp=0.60 / qpmin=10 / qpmax=51 / qpstep=4 / cplxblur=20.0 / qblur=0.5 / ip_ratio=1.40 / aq=1:1.00
Audio #1
ID : 2
Format : AC-3
Format/Info : Audio Coding 3
Codec ID : A_AC3
Duration : 1h 37mn
Bit rate mode : Constant
Bit rate : 384 Kbps
Channel(s) : 6 channels
Channel positions : Front: L C R, Surround: L R, LFE
Sampling rate : 48.0 KHz
Stream size : 267 MiB (5%)
Title : DVO
Language : Russian
Audio #2
ID : 3
Format : AC-3
Format/Info : Audio Coding 3
Codec ID : A_AC3
Duration : 1h 37mn
Bit rate mode : Constant
Bit rate : 192 Kbps
Channel(s) : 2 channels
Channel positions : L R
Sampling rate : 48.0 KHz
Stream size : 133 MiB (3%)
Title : AVO
Language : Russian
Audio #3
ID : 4
Format : DTS
Format/Info : Digital Theater Systems
Codec ID : A_DTS
Duration : 1h 37mn
Bit rate mode : Constant
Bit rate : 1 510 Kbps
Channel(s) : 6 channels
Channel positions : Front: L C R, Surround: L R, LFE
Sampling rate : 48.0 KHz
Resolution : 24 bits
Stream size : 1.02 GiB (22%)
Language : English
Text #1
ID : 5
Format : UTF-8
Codec ID : S_TEXT/UTF8
Codec ID/Info : UTF-8 Plain Text
Language : Russian
Text #2
ID : 6
Format : UTF-8
Codec ID : S_TEXT/UTF8
Codec ID/Info : UTF-8 Plain Text
Language : English
-Скриншоты:

Время раздачи: 24/7 - круглосуточно

[Цитировать]



Показать сообщения:    

Текущее время: 07-Дек 19:29

Часовой пояс: UTC + 3


Вы не можете начинать темы
Вы не можете отвечать на сообщения
Вы не можете редактировать свои сообщения
Вы не можете удалять свои сообщения
Вы не можете голосовать в опросах
Вы не можете прикреплять файлы к сообщениям
Вы не можете скачивать файлы

!ВНИМАНИЕ!
Сайт не предоставляет электронные версии произведений, а занимается лишь коллекционированием и каталогизацией ссылок, присылаемых и публикуемых на форуме нашими читателями. Если вы являетесь правообладателем какого-либо представленного материала и не желаете, чтобы ссылка на него находилась в нашем каталоге, свяжитесь с нами, и мы незамедлительно удалим ее. Файлы для обмена на трекере предоставлены пользователями сайта, и администрация не несет ответственности за их содержание. Просьба не заливать файлы, защищенные авторскими правами, а также файлы нелегального содержания!