[ Сегодня идет свободное скачивание без начисления Download ]


Статистика раздачи
Нет
 
   
 
Top  
 
 
-Во имя отца / In the Name of the Father (1993) BDRemux- Русское название: Во имя отца
Оригинальное название: In the Name of the Father
Год выпуска: 1993
Жанр: Триллер, Драма, Биография
Описание фильма:
Эта драма основана на реальных событиях — истории «Гилфордской четверки». В 1975 году молодой ирландец Джерри Конлон был приговорен английским правосудием к пожизненному заключению за покушение, которое он не совершал. Трое его друзей, его отец, тетя, племянница и племянник также осуждены за соучастие. Адвокат Гэрит Перси пытается добиться пересмотра дела.
Режиссер: Джим Шеридан
Актеры: Дэниэл Дэй-Льюис, Пит Постлетуэйт, Эмма Томпсон, Джон Линч, Марк Шеппард, Бети Эдни, Мэри Джонс, Бритта Смит, Корин Редгрейв, Лу Кастель, Джо Коннор, Карен Карлайл, Симус Моран, Билли Бирн, Морин МакБрайд, Джейн Нолан, Лоуренс Гриффин, Джейсон Мурта, Джоэнна Ирвин
Продолжительность: 02:12:51
Перевод: Многоголосый закадровый, Авторский одноголосый
Язык субтитров: Русский, Английский
Вид субтитров: Вшитые отключаемые
-Видеокодек: VC-1
Битрейт видео: ~30960 Кбит/сек
Размер кадра: 1920 х 1080
Качество видео: BDRemux 1080p
Аудио 1: Русский, AC3 2.0, 384 kbps, 48 kHz (MVO)
Аудио 2: Русский, AC3 2.0, 192 kbps, 48 kHz (AVO, А.Гаврилов)
Аудио 3: Английский, DTS-HD MA 5.1, 4150 kbps, 48 kHz-Сэмпл: Ссылка-

Награды:

Оскар, 1994 год
Номинации (7):
Лучший фильм
Лучшая мужская роль (Дэниэл Дэй-Льюис)
Лучшая мужская роль второго плана (Пит Постлетуэйт)
Лучшая женская роль второго плана (Эмма Томпсон)
Лучший режиссер (Джим Шеридан)
Лучший адаптированный сценарий
Лучший монтаж
Золотой глобус, 1994 год
Номинации (4):
Лучший фильм (драма)
Лучшая мужская роль (драма) (Дэниэл Дэй-Льюис)
Лучшая женская роль второго плана (Эмма Томпсон)
Лучшая песня — «(You Made Me the) Thief of Your Heart»
Британская академия, 1994 год
Номинации (2):
Лучшая мужская роль (Дэниэл Дэй-Льюис)
Лучший адаптированный сценарий
Берлинский кинофестиваль, 1994 год
Победитель (1):
Золотой Медведь
Европейская киноакадемия, 1994 год
Номинации (1):
Лучший фильм
-

Из книги «3500 кинорецензий»

Первая половина этой ленты, основанной на воспоминаниях ирландца Джерри Конлона, который просидел 15 лет в английской тюрьме по несправедливому обвинению в терроризме, может даже оттолкнуть зрителей, чуждых политики. Трудно поверить, что Джерри и его отец со странным для англосакса именем Джузеппе были, на самом-то деле, невиновными. И лишь после того, как в «их» преступлении сознался попавший в ту же тюрьму боевик из ИРА, наконец-то понимаешь драму людей, которые стали своеобразными козлами отпущения для британского правосудия. Вторая половина картины ирландца Джима Шеридана как раз даёт возможность проникнуться сочувствием к пострадавшим героям из так называемой «гилфордской четвёрки». И всё же фильм в целом не производит сильного впечатления — в отличие от следующей работы режиссёра «Боксёр».
Остаётся только удивляться, что «Во имя Отца» (название подразумевает ещё и католический смысл) получил Гран-при на фестивале в Берлине, обыграв такие талантливые ленты, как «Клубничное и шоколадное» и «Три цвета: белый», потом выдвигался по семи номинациям на «Оскар» и по двум — на соискание премий Британской киноакадемии, а также хорошо прошёл не только в английском и американском, но и в мировом прокате. Однако во влиятельном британском киножурнале «Сайт энд Саунд» написали об этой картине весьма уничижительно: «Бессовестное ирландское мифотворчество».
-

MediaInfo:

Общее
Уникальный идентификатор : 176736164202510974793426950481849549888 (0x84F625A7A6398290BBA2E1D0D6D70440)
Полное имя : D:\Films\In_the_Name_of_the_Father.1993.1080p.BDRemux.mkv
Формат : Matroska
Версия формата : Version 2
Размер файла : 33,1 Гбайт
Продолжительность : 2 ч. 12 м.
Режим общего битрейта : Переменный
Общий поток : 35,7 Мбит/сек
Название фильма : In the Name of the Father
Дата кодирования : UTC 2013-04-12 16:15:28
Программа кодирования : mkvmerge v5.2.0 ('I can't explain') built on Dec 18 2011 18:12:03
Библиотека кодирования : libebml v1.2.3 + libmatroska v1.3.0
Видео
Идентификатор : 1
Формат : VC-1
Профиль формата : Advanced@L3
Идентификатор кодека : V_MS/VFW/FOURCC / WVC1
Идентификатор кодека/Подсказка : Microsoft
Продолжительность : 2 ч. 12 м.
Ширина : 1920 пикселей
Высота : 1080 пикселей
Соотношение сторон : 16:9
Режим частоты кадров : Постоянный
Частота кадров : 23,976 кадра/сек
Субдискретизация насыщенности : 4:2:0
Битовая глубина : 8 бит
Тип развёртки : Прогрессивная
Метод сжатия : С потерями
Язык : English
Default : Да
Forced : Нет
Аудио #1
Идентификатор : 2
Формат : AC-3
Формат/Информация : Audio Coding 3
Расширение режима : CM (complete main)
Параметр Endianness формата : Big
Идентификатор кодека : A_AC3
Продолжительность : 2 ч. 12 м.
Вид битрейта : Постоянный
Битрейт : 384 Кбит/сек
Каналы : 2 канала
Расположение каналов : Front: L R
Частота : 48,0 КГц
Битовая глубина : 16 бит
Метод сжатия : С потерями
Размер потока : 365 Мбайт (1%)
Заголовок : MVO
Язык : Russian
Default : Да
Forced : Нет
Аудио #2
Идентификатор : 3
Формат : AC-3
Формат/Информация : Audio Coding 3
Расширение режима : CM (complete main)
Параметр Endianness формата : Big
Идентификатор кодека : A_AC3
Продолжительность : 2 ч. 12 м.
Вид битрейта : Постоянный
Битрейт : 192 Кбит/сек
Каналы : 2 канала
Расположение каналов : Front: L R
Частота : 48,0 КГц
Битовая глубина : 16 бит
Метод сжатия : С потерями
Размер потока : 182 Мбайт (1%)
Заголовок : AVO А.Гаврилов
Язык : Russian
Default : Нет
Forced : Нет
Аудио #3
Идентификатор : 4
Формат : DTS
Формат/Информация : Digital Theater Systems
Профиль формата : MA / Core
Режим : 16
Параметр Endianness формата : Big
Идентификатор кодека : A_DTS
Продолжительность : 2 ч. 12 м.
Вид битрейта : Переменный
Битрейт : Неизвестно / 1509 Кбит/сек
Каналы : 6 каналов
Расположение каналов : Front: L C R, Side: L R, LFE
Частота : 48,0 КГц
Битовая глубина : 24 бит
Метод сжатия : Без потерь / Lossy
Заголовок : Lossless
Язык : English
Default : Нет
Forced : Нет
Текст #1
Идентификатор : 5
Формат : UTF-8
Идентификатор кодека : S_TEXT/UTF8
Идентификатор кодека/Информация : UTF-8 Plain Text
Язык : Russian
Default : Нет
Forced : Нет
Текст #2
Идентификатор : 6
Формат : UTF-8
Идентификатор кодека : S_TEXT/UTF8
Идентификатор кодека/Информация : UTF-8 Plain Text
Язык : English
Default : Нет
Forced : Нет
Меню
00:00:00.000 : en:Chapter 00
00:05:58.941 : en:Chapter 01
00:09:53.801 : en:Chapter 02
00:22:33.393 : en:Chapter 03
00:29:33.980 : en:Chapter 04
00:39:09.805 : en:Chapter 05
00:42:27.253 : en:Chapter 06
00:51:01.266 : en:Chapter 07
01:03:46.697 : en:Chapter 08
01:16:33.964 : en:Chapter 09
01:32:49.564 : en:Chapter 10
01:45:25.193 : en:Chapter 11
01:50:05.932 : en:Chapter 12
01:56:33.486 : en:Chapter 13
02:05:05.956 : en:Chapter 14
02:07:14.126 : en:Chapter 15
-Скриншоты:
-Время раздачи: С 8:00 до 22:00 до 5 скачавших

[Цитировать]



Показать сообщения:    

Текущее время: 24-Янв 16:18

Часовой пояс: UTC + 3


Вы не можете начинать темы
Вы не можете отвечать на сообщения
Вы не можете редактировать свои сообщения
Вы не можете удалять свои сообщения
Вы не можете голосовать в опросах
Вы не можете прикреплять файлы к сообщениям
Вы не можете скачивать файлы

!ВНИМАНИЕ!
Сайт не предоставляет электронные версии произведений, а занимается лишь коллекционированием и каталогизацией ссылок, присылаемых и публикуемых на форуме нашими читателями. Если вы являетесь правообладателем какого-либо представленного материала и не желаете, чтобы ссылка на него находилась в нашем каталоге, свяжитесь с нами, и мы незамедлительно удалим ее. Файлы для обмена на трекере предоставлены пользователями сайта, и администрация не несет ответственности за их содержание. Просьба не заливать файлы, защищенные авторскими правами, а также файлы нелегального содержания!