[ Сегодня идет свободное скачивание без начисления Download ]


Статистика раздачи
Нет
 
   
 
Top  
 
 
Спартак: Месть
Spartacus: Vengeance
«Some legends are written in blood.»- Год выпуска: 2012
Страна: США
Жанр: боевик, драма, приключения, биография, история
Продолжительность: ~00:57:00 x10-Перевод: Профессиональный (многоголосый закадровый)
Субтитры: русские (форс. + полные *), английские (полные + SDH)-Режиссёр: Майкл Херст, Джесси Уарн, Рик Джейкобсон
В ролях: Лиам МакИнтайр (Spartacus), Ману Беннетт (Crixus), Питер Менса (Doctore), Ник Тарабэй (Ashur), Вива Бьянка (Ilithyia), Катрина Ло (Mira), Крэйг Паркер (Glaber), Лесли-Энн Брандт (Naevia), Люси Лоулесс (Lucretia)
Описание: Вслед за кровавым побегом из дома Батиата, восстание гладиаторов начинает вселять страх в сердце Римской республики. Гай Клавдий Глабр и его римские войска направляются в Капую разбить, с каждым днём растущую группу освобожденных рабов, под предводительством лучшего римского гладиатора Спартака. Спартаку выпадает шанс отомстить человеку обрекшего его на рабство, а его жену на смерть. Вы увидите невероятную историю мести Спартака, всю кровь пролившуюся на римские земли во время восстания, самый страстный секс, подлость, предательства, героизм...-
Релиз: by vlaluk-Качество видео: BDRemux 1080p
Формат: MKV
Видео: H.264/AVC, 1920x1080 (16:9), 23.976 fps, ~25000 kbps
Аудио №1: Русский: DTS-HD MA 5.1, 48 kHz, 24 bit, ~3500 kbps (MVO - Студия "Кравец")
Аудио №2: Английский: DTS-HD MA 5.1, 48 kHz, 24 bit, ~3400 kbps (Original)
Аудио №3: Английский: AC3 2.0, 48 kHz, 192 kbps (Commentary)-

Дополнительная информация

  • Сохранены оригинальные чаптеры как на Blu-ray.
  • Дорожка №1 получена наложением выделенного голоса на центр декодированного TrueHD. За выделенные голоса спасибо Nez'у.
  • За субтитры, набитые по озвучке Лостфильма, благодарим Kain_Rasiel. Немного подправил кое-что, исправил некоторые ошибки. Сабы только на 1-6 эпизоды *.
  • Учитывая, что все эпизоды расширенные, есть не озвученные места. На эти места сделаны форсированные субтитры.
  • Оригинальный Dolby TrueHD пересобран в DTS-HD MA.

Список серий:

  • 02x01: Fugitivus / Беглый
  • 02x02: A Place in this World / Место в этом мире
  • 02x03: The Greater Good / Высшее благо
  • 02x04: Empty Hands / Пустые руки
  • 02x05: Libertus / Вольный
  • 02x06: Chosen Path / Избранный путь
  • 02x07: Sacramentum / Клятва
  • 02x08: Balance / Чаши весов
  • 02x09: Monsters / Чудовища
  • 02x10: Wrath of the Gods / Гнев богов

Знаете ли вы, что...

  • По завершению первого сезона производство сериала было приостановлено в связи с неожиданной диагностикой рака у Энди Уитфилда, исполняющего роль Спартака. Продюсеры собирались ждать выздоровления актера и не приступать до тех пор к съемкам второго сезона, но когда болезнь начала прогрессировать, и Уитфилд окончательно покинул сериал, был проведен рекастинг, и на главную роль выбрали Лиама Макинтайера. Энди Уитфилд скончался в сентябре 2011 года.

Ссылка на предыдущие и альтернативные раздачи сериала

http://rutracker.org/forum/tracker.php?f=189,2405&a...rtacus+Vengeance

MediaInfo

General
Complete name : Spartacus.Vengeance.S02.1080p.BDRemux\Spartacus.Vengeance.S02E01.1080p.BDRemux.Rus.Eng.Subs.mkv
Format : Matroska
Format version : Version 4 / Version 2
File size : 11.4 GiB
Duration : 57mn 34s
Overall bit rate mode : Variable
Overall bit rate : 28.3 Mbps
Movie name : Spartacus: Vengeance (2012) [S02] Release by vlaluk @ HDCLUB
Encoded date : UTC 2010-02-22 21:41:31
Writing application : mkvmerge v5.9.0 ('On The Loose') built on Dec 9 2012 15:37:01
Writing library : libebml v1.3.0 + libmatroska v1.4.0
Video
ID : 1
Format : AVC
Format/Info : Advanced Video Codec
Format profile : High@L4.1
Format settings, CABAC : Yes
Format settings, ReFrames : 2 frames
Codec ID : V_MPEG4/ISO/AVC
Duration : 57mn 34s
Bit rate mode : Variable
Bit rate : 24.4 Mbps
Width : 1 920 pixels
Height : 1 080 pixels
Display aspect ratio : 16:9
Frame rate : 23.976 fps
Color space : YUV
Chroma subsampling : 4:2:0
Bit depth : 8 bits
Scan type : Progressive
Bits/(Pixel*Frame) : 0.491
Stream size : 9.82 GiB (86%)
Title : S02E01: Fugitivus / Беглый
Language : English
Default : Yes
Forced : No
Audio #1
ID : 2
Format : DTS
Format/Info : Digital Theater Systems
Format profile : MA / Core
Codec ID : A_DTS
Duration : 57mn 34s
Bit rate mode : Variable
Bit rate : 1 561 Kbps / 1 510 Kbps
Channel(s) : 6 channels
Channel positions : Front: L C R, Side: L R, LFE
Sampling rate : 48.0 KHz
Bit depth : 24 bits
Compression mode : Lossless / Lossy
Title : MVO - Студия "Кравец"
Language : Russian
Default : Yes
Forced : No
Audio #2
ID : 3
Format : DTS
Format/Info : Digital Theater Systems
Format profile : MA / Core
Codec ID : A_DTS
Duration : 57mn 34s
Bit rate mode : Variable
Bit rate : 1 561 Kbps / 1 510 Kbps
Channel(s) : 6 channels
Channel positions : Front: L C R, Side: L R, LFE
Sampling rate : 48.0 KHz
Bit depth : 24 bits
Compression mode : Lossless / Lossy
Title : Original
Language : English
Default : No
Forced : No
Audio #3
ID : 4
Format : AC-3
Format/Info : Audio Coding 3
Mode extension : CM (complete main)
Codec ID : A_AC3
Duration : 57mn 34s
Bit rate mode : Constant
Bit rate : 192 Kbps
Channel(s) : 2 channels
Channel positions : Front: L R
Sampling rate : 48.0 KHz
Bit depth : 16 bits
Compression mode : Lossy
Stream size : 79.1 MiB (1%)
Title : Commentary
Language : English
Default : No
Forced : No
Text #1
ID : 5
Format : UTF-8
Codec ID : S_TEXT/UTF8
Codec ID/Info : UTF-8 Plain Text
Title : Forced
Language : Russian
Default : Yes
Forced : Yes
Text #2
ID : 6
Format : UTF-8
Codec ID : S_TEXT/UTF8
Codec ID/Info : UTF-8 Plain Text
Title : Full
Language : Russian
Default : No
Forced : No
Text #3
ID : 7
Format : UTF-8
Codec ID : S_TEXT/UTF8
Codec ID/Info : UTF-8 Plain Text
Title : Full
Language : English
Default : No
Forced : No
Text #4
ID : 8
Format : UTF-8
Codec ID : S_TEXT/UTF8
Codec ID/Info : UTF-8 Plain Text
Title : SDH
Language : English
Default : No
Forced : No
Menu
00:00:00.000 : en:00:00:00.000
00:03:42.222 : en:00:03:42.222
00:15:15.915 : en:00:15:15.915
00:23:44.882 : en:00:23:44.882
00:33:43.355 : en:00:33:43.355
00:43:23.226 : en:00:43:23.226
00:55:36.291 : en:00:55:36.291
- Built with Flash Release [url=http://rutracker.org/forum/viewtopic.php?t=1090620]?[/url]

[Цитировать]



Показать сообщения:    

Текущее время: 02-Дек 22:54

Часовой пояс: UTC + 3


Вы не можете начинать темы
Вы не можете отвечать на сообщения
Вы не можете редактировать свои сообщения
Вы не можете удалять свои сообщения
Вы не можете голосовать в опросах
Вы не можете прикреплять файлы к сообщениям
Вы не можете скачивать файлы

!ВНИМАНИЕ!
Сайт не предоставляет электронные версии произведений, а занимается лишь коллекционированием и каталогизацией ссылок, присылаемых и публикуемых на форуме нашими читателями. Если вы являетесь правообладателем какого-либо представленного материала и не желаете, чтобы ссылка на него находилась в нашем каталоге, свяжитесь с нами, и мы незамедлительно удалим ее. Файлы для обмена на трекере предоставлены пользователями сайта, и администрация не несет ответственности за их содержание. Просьба не заливать файлы, защищенные авторскими правами, а также файлы нелегального содержания!