[ Сегодня идет свободное скачивание без начисления Download ]


Статистика раздачи
Нет
 
   
 
Top  
 
 
-Каратель / The Punisher (1989) BDRemux- Русское название: Каратель
Оригинальное название: The Punisher
Год выпуска: 1989
Производство: New World Pictures / США, Австралия
Жанр: Боевик, Триллер, Криминал-Описание фильма:
Полицейский Фрэнк Кастл с трудом пережил гибель семьи, его жена и дочь сгорели живьем во взорванном автомобиле. Теперь он стал судьей и палачом 125 гангстеров, которых он разыскал и приговорил к смерти. Его невозможно остановить. Но у него слишком много врагов…-Режиссер: Марк Голдблатт / Mark Goldblatt
Актеры: Дольф Лундгрен, Луис Госсет мл., Ерун Краббе, Ким Мийори, Брайан Маршалл, Нэнси Эверхард, Бэрри Отто, Брайан Руни, Кенджи Ямаки-Продолжительность: 01:29:05
Перевод: Профессиональный (многоголосый, закадровый) Viking Video + 2x Авторский (одноголосый закадровый) А.Гаврилов, Л.Володарский + Профессиональный (двухголосый закадровый) 1+1
Оригинальная аудиодорожка: английский
Язык субтитров: русские, английские
Вид субтитров: Вшитые отключаемые- -Видеокодек: MPEG-4 AVC/H.264
Битрейт видео: ~29987 kbps
Размер кадра: 1920x1080p
Качество видео: BDRemux 1080p-Аудио 1: Русский 48 kHz, AC3, 2/0 (L,R), ~384.00 kbps avg | MVO
Аудио 2: Русский 48 kHz, AC3, 2/0 (L,R), ~384.00 kbps avg | А.Гаврилов
Аудио 3: Русский 48 kHz, AC3, 2/0 (L,R), ~192.00 kbps avg | Л.Володарский
Аудио 4: Украинский 48 kHz, AC3, 2/0 (L,R), ~192.00 kbps avg | 1+1
Аудио 5: Английский DTS-HD MA 5.1 / (48 kHz / 2304 kbps / 16-bit) (DTS Core: 5.1 / 48 kHz / 768 kbps / 16-bit)
-

Знаете ли вы, что...

Картина вышла в широкий прокат во всех странах, кроме США.
Изначально фильм должен был сниматься с крохотным бюджетом и неизвестными австралийскими актёрами.
Режиссёрская версия длинее театральной на 17 минут.
Главная критика поклонников комикса о Карателе состояла в недовольстве по поводу отстутствия на футболке героя Дольфа Лундгрена «фирменного» Черепа.
Голдблатт получил чуть ли не самый маленький гонорар среди всех создателей фильма.
Луи Гассет-младший и Лундгрен подружились на сьёмках, позже они сыграли вместе ещё раз-в детективной драме «Чёрный октябрь».
В реальной жизни японские якудза не имеют женщин в своей организации, тем более женщин-начальников.
Продюссер Роберт Марк Кеймен увидев воочию размеры Лундгрена потребовал, чтобы тот сбросил около 14 кг. Дело в том, что по сюжету Френк Кассл живёт в подземелье, ест что-попало и не всегда может тренироваться. А посему не может выглядеть таким огромным. Дольф с заданием справился.
Каратель придуман Герри Конвеем, Джоном Ромитой-старшим и Россом Андру и впервые появился в комиксе Amazing Spider-Man #129 (1974 год).
-

MediaInfo:

General
Complete name : O:\The.Punisher.1989.BDRemux.1080p.mkv
Format : Matroska
File size : 20.6 GiB
Duration : 1h 29mn
Overall bit rate : 33.1 Mbps
Movie name : Arifis
Encoded date : UTC 2013-04-13 16:36:46
Writing application : mkvmerge v5.2.1 ('A Far Off Place') built on Jan 2 2012 23:21:10
Writing library : libebml v1.2.3 + libmatroska v1.3.0
Video
ID : 1
Format : AVC
Format/Info : Advanced Video Codec
Format profile : [email protected]
Format settings, CABAC : Yes
Format settings, ReFrames : 4 frames
Muxing mode : Container [email protected]
Codec ID : V_MPEG4/ISO/AVC
Duration : 1h 29mn
Width : 1 920 pixels
Height : 1 080 pixels
Display aspect ratio : 16:9
Frame rate : 23.976 fps
Standard : NTSC
Resolution : 8 bits
Colorimetry : 4:2:0
Scan type : Progressive
Title : The Punisher (Arifis)
Color primaries : BT.709-5, BT.1361, IEC 61966-2-4, SMPTE RP177
Transfer characteristics : BT.709-5, BT.1361
Matrix coefficients : BT.709-5, BT.1361, IEC 61966-2-4 709, SMPTE RP177
Audio #1
ID : 2
Format : AC-3
Format/Info : Audio Coding 3
Codec ID : A_AC3
Duration : 1h 29mn
Bit rate mode : Constant
Bit rate : 384 Kbps
Channel(s) : 2 channels
Channel positions : L R
Sampling rate : 48.0 KHz
Stream size : 245 MiB (1%)
Title : АС3 2.0 @ 384 kbps - MVO, Viking Video
Language : Russian
Audio #2
ID : 3
Format : AC-3
Format/Info : Audio Coding 3
Codec ID : A_AC3
Duration : 1h 29mn
Bit rate mode : Constant
Bit rate : 384 Kbps
Channel(s) : 2 channels
Channel positions : L R
Sampling rate : 48.0 KHz
Stream size : 245 MiB (1%)
Title : АС3 2.0 @ 384 kbps - VO, Gavrilov
Language : Russian
Audio #3
ID : 4
Format : AC-3
Format/Info : Audio Coding 3
Codec ID : A_AC3
Duration : 1h 29mn
Bit rate mode : Constant
Bit rate : 192 Kbps
Channel(s) : 2 channels
Channel positions : L R
Sampling rate : 48.0 KHz
Stream size : 122 MiB (1%)
Title : АС3 2.0 @ 192 kbps - VO, Volodarskii
Language : Russian
Audio #4
ID : 5
Format : AC-3
Format/Info : Audio Coding 3
Codec ID : A_AC3
Duration : 1h 29mn
Bit rate mode : Constant
Bit rate : 192 Kbps
Channel(s) : 2 channels
Channel positions : L R
Sampling rate : 48.0 KHz
Stream size : 122 MiB (1%)
Title : АС3 2.0 @ 192 kbps - DVO, 1+1
Language : Ukrainian
Audio #5
ID : 6
Format : DTS
Format/Info : Digital Theater Systems
Format profile : MA
Codec ID : A_DTS
Duration : 1h 29mn
Bit rate mode : Variable
Channel(s) : 6 channels
Channel positions : Front: L C R, Surround: L R, LFE
Sampling rate : 48.0 KHz
Resolution : 16 bits
Title : DTS-HD MA 5.1 Original @ 2304 kbps
Text #1
ID : 7
Format : UTF-8
Codec ID : S_TEXT/UTF8
Codec ID/Info : UTF-8 Plain Text
Title : Full Rus
Language : Russian
Text #2
ID : 8
Format : UTF-8
Codec ID : S_TEXT/UTF8
Codec ID/Info : UTF-8 Plain Text
Title : Full Eng
Menu
00:00:00.000 : :Chapter 01
00:07:33.453 : :Chapter 02
00:15:58.832 : :Chapter 03
00:21:38.755 : :Chapter 04
00:29:20.759 : :Chapter 05
00:37:31.332 : :Chapter 06
00:43:20.514 : :Chapter 07
00:50:53.467 : :Chapter 08
00:58:21.915 : :Chapter 09
01:07:28.461 : :Chapter 10
01:14:21.039 : :Chapter 11
01:21:31.052 : :Chapter 12
-Скриншоты:
Время раздачи: 24/7 - круглосуточно

[Цитировать]



Показать сообщения:    

Текущее время: 04-Дек 15:14

Часовой пояс: UTC + 3


Вы не можете начинать темы
Вы не можете отвечать на сообщения
Вы не можете редактировать свои сообщения
Вы не можете удалять свои сообщения
Вы не можете голосовать в опросах
Вы не можете прикреплять файлы к сообщениям
Вы не можете скачивать файлы

!ВНИМАНИЕ!
Сайт не предоставляет электронные версии произведений, а занимается лишь коллекционированием и каталогизацией ссылок, присылаемых и публикуемых на форуме нашими читателями. Если вы являетесь правообладателем какого-либо представленного материала и не желаете, чтобы ссылка на него находилась в нашем каталоге, свяжитесь с нами, и мы незамедлительно удалим ее. Файлы для обмена на трекере предоставлены пользователями сайта, и администрация не несет ответственности за их содержание. Просьба не заливать файлы, защищенные авторскими правами, а также файлы нелегального содержания!