[ Сегодня идет свободное скачивание без начисления Download ]


Статистика раздачи
Нет
 
   
 
Top  
 
 
- Страна: США
Жанр: Фэнтези, Приключения, Боевик
Год выпуска: 2012
Продолжительность: 00:55:00
Перевод: Профессиональный (многоголосый закадровый) - LostFilm
Cубтитры: Rus(Forced), Rus(LostFilm for 1-6 episodes), Eng, Eng(SDH)
Режиссер:
Майкл Херст / Michael Hurst
В ролях:Лиам Макинтайр, Ману Беннетт, Люси Лоулесс, Питер Менса, Дастин Клер, Крейг Паркер, Катрина Лоу, Ник Тарабэй, Вива Бьянка, Синтия Аддаи-Робинсон, Ден Фойерригель, Том Хоббс, Ханна Манган Лоуренс Описание:
Легенда о фракийском воине Спартаке, попавшем в рабство к римлянам, ставшим гладиатором и возглавившим одно из самых массовых восстаний рабов в Древнем Риме - известна всем ещё со школьной скамьи. Создатели сериала дают нам возможность вновь окунуться в атмосферу античности и помогают древней легенде буквально заиграть новыми красками, с применением новейших технологий кинематографии.
- -Качество видео: BDRip 720p
Формат видео: MKV
Видео кодек: H.264
Аудио кодек: AC3
Видео: 1280x720 at 23.976 fps, x264@L4.1, crf, ~8500 kbps avg, 0.23 bit/pixel
Аудио #1: 48 kHz, DTS, 3/2 (L,C,R,l,r) + LFE ch, ~1509.00 kbps avg / LostFilm /
Аудио #2: 48 kHz, DTS, 3/2 (L,C,R,l,r) + LFE ch, ~1509.00 kbps avg / Original /
Аудио #3: 48 kHz, AC3, 2/0 (L,R) ch, ~192 kbps avg / Commentary /-
-Релиз от группы: by vlaluk-Все раздачи сериала-
-

MI

General
Unique ID : 188200314542138984611031434054739804024 (0x8D960FE7E1A701E7A5E56661E749BF78)
Complete name : I:\ЗАКАЧКИ\Spartacus.Vengeance.S02.720p.BDRip.Rus.Eng.HDCLUB\Spartacus.Vengeance.S02E01.720p.BDRip.Rus.Eng.HDCLUB.mkv
Format : Matroska
File size : 4.82 GiB
Duration : 57mn 34s
Overall bit rate : 12.0 Mbps
Movie name : Spartacus: Vengeance [Season 2] (2012) - Release for HDClub by vlaluk
Encoded date : UTC 2010-02-22 21:41:31
Writing application : mkvmerge v5.9.0 ('On The Loose') built on Dec 9 2012 15:37:01
Writing library : libebml v1.3.0 + libmatroska v1.4.0
Video
ID : 1
Format : AVC
Format/Info : Advanced Video Codec
Format profile : High@L4.1
Format settings, CABAC : Yes
Format settings, ReFrames : 9 frames
Codec ID : V_MPEG4/ISO/AVC
Duration : 57mn 34s
Bit rate : 8 546 Kbps
Width : 1 280 pixels
Height : 720 pixels
Display aspect ratio : 16:9
Frame rate : 23.976 fps
Color space : YUV
Chroma subsampling : 4:2:0
Bit depth : 8 bits
Scan type : Progressive
Bits/(Pixel*Frame) : 0.387
Stream size : 3.44 GiB (71%)
Title : S02E01: Fugitivus / Беглый (Extended Version) @ Release for HDClub by vlaluk
Writing library : x264 core 116 r2057 0ba8a9c
Encoding settings : cabac=1 / ref=9 / deblock=1:-3:-3 / analyse=0x3:0x133 / me=umh / subme=10 / psy=1 / psy_rd=1.00:0.00 / mixed_ref=1 / me_range=32 / chroma_me=1 / trellis=2 / 8x8dct=1 / cqm=0 / deadzone=21,11 / fast_pskip=0 / chroma_qp_offset=-2 / threads=18 / sliced_threads=0 / nr=0 / decimate=0 / interlaced=0 / bluray_compat=0 / constrained_intra=0 / bframes=7 / b_pyramid=2 / b_adapt=2 / b_bias=0 / direct=3 / weightb=1 / open_gop=0 / weightp=2 / keyint=250 / keyint_min=23 / scenecut=40 / intra_refresh=0 / rc_lookahead=40 / rc=crf / mbtree=0 / crf=16.9 / qcomp=0.65 / qpmin=0 / qpmax=40 / qpstep=4 / vbv_maxrate=50000 / vbv_bufsize=50000 / crf_max=0.0 / nal_hrd=none / ip_ratio=1.25 / pb_ratio=1.25 / aq=1:0.65
Language : English
Audio #1
ID : 2
Format : DTS
Format/Info : Digital Theater Systems
Codec ID : A_DTS
Duration : 57mn 34s
Bit rate mode : Constant
Bit rate : 1 510 Kbps
Channel(s) : 6 channels
Channel positions : Front: L C R, Side: L R, LFE
Sampling rate : 48.0 KHz
Bit depth : 24 bits
Compression mode : Lossy
Stream size : 622 MiB (13%)
Title : DTS 5.1 @ 1509 kbps @ LostFilm
Language : Russian
Audio #2
ID : 3
Format : DTS
Format/Info : Digital Theater Systems
Codec ID : A_DTS
Duration : 57mn 34s
Bit rate mode : Constant
Bit rate : 1 510 Kbps
Channel(s) : 6 channels
Channel positions : Front: L C R, Side: L R, LFE
Sampling rate : 48.0 KHz
Bit depth : 24 bits
Compression mode : Lossy
Stream size : 622 MiB (13%)
Title : DTS 5.1 @ 1509 kbps
Language : English
Audio #3
ID : 4
Format : AC-3
Format/Info : Audio Coding 3
Mode extension : CM (complete main)
Codec ID : A_AC3
Duration : 57mn 34s
Bit rate mode : Constant
Bit rate : 192 Kbps
Channel(s) : 2 channels
Channel positions : Front: L R
Sampling rate : 48.0 KHz
Bit depth : 16 bits
Compression mode : Lossy
Stream size : 79.1 MiB (2%)
Title : DD 2.0 @ 192 kbps @ Commentary
Language : English
Text #1
ID : 5
Format : UTF-8
Codec ID : S_TEXT/UTF8
Codec ID/Info : UTF-8 Plain Text
Title : Russian @ SRT @ Forced
Language : Russian
Text #2
ID : 6
Format : UTF-8
Codec ID : S_TEXT/UTF8
Codec ID/Info : UTF-8 Plain Text
Title : Russian @ SRT @ LostFilm
Language : Russian
Text #3
ID : 7
Format : UTF-8
Codec ID : S_TEXT/UTF8
Codec ID/Info : UTF-8 Plain Text
Title : English @ SRT
Language : English
Text #4
ID : 8
Format : UTF-8
Codec ID : S_TEXT/UTF8
Codec ID/Info : UTF-8 Plain Text
Title : English @ SRT @ SDH
Language : English
Menu
00:00:00.000 : en:00:00:00.000
00:03:42.222 : en:00:03:42.222
00:15:15.915 : en:00:15:15.915
00:23:44.882 : en:00:23:44.882
00:33:43.355 : en:00:33:43.355
00:43:23.226 : en:00:43:23.226
00:55:36.291 : en:00:55:36.291

Доп.информация

- Сохранены оригинальные чаптеры как на Blu-ray.
- Дорожка №1 получена наложением выделенного голоса на центр декодированного TrueHD. За выделенные голоса спасибо Nez'у.
- За субтитры, набитые по озвучке Лостфильма благодарим Kain_Rasiel. vlaluk немного подправил кое-что, исправил некоторые ошибки. Сабы только на 1-6 эпизоды.
- Учитывая, что все эпизоды расширенные, есть не озвученные места. На эти места сделаны форсированные субтитры.

[Цитировать]



Показать сообщения:    

Текущее время: 08-Дек 01:20

Часовой пояс: UTC + 3


Вы не можете начинать темы
Вы не можете отвечать на сообщения
Вы не можете редактировать свои сообщения
Вы не можете удалять свои сообщения
Вы не можете голосовать в опросах
Вы не можете прикреплять файлы к сообщениям
Вы не можете скачивать файлы

!ВНИМАНИЕ!
Сайт не предоставляет электронные версии произведений, а занимается лишь коллекционированием и каталогизацией ссылок, присылаемых и публикуемых на форуме нашими читателями. Если вы являетесь правообладателем какого-либо представленного материала и не желаете, чтобы ссылка на него находилась в нашем каталоге, свяжитесь с нами, и мы незамедлительно удалим ее. Файлы для обмена на трекере предоставлены пользователями сайта, и администрация не несет ответственности за их содержание. Просьба не заливать файлы, защищенные авторскими правами, а также файлы нелегального содержания!