[ Сегодня идет свободное скачивание без начисления Download ]


Статистика раздачи
Нет
 
   
 
Top  
 
 
-Забавные игры / Funny Games U.S. (2007) BDRip- Русское название: Забавные игры
Оригинальное название: Funny Games U.S.
Производство: Celluloid Dreams, Halcyon Pictures / США, Франция..
Год выпуска: 2007
Жанр: Триллер, драма, криминал-Описание фильма:
Два милых молодых человека стучатся в дверь загородного дома. Вежливо просят о невинной услуге. И не уйдут. В тот момент, когда им открыли дверь, уже случилось непоправимое. Начнется цепь изощренных издевательств, изысканных пыток, медленного садистского уничтожения обитателей дома.-Режиссер: Михаэль Ханеке / Michael Haneke
Актеры: Наоми Уоттс / Naomi Watts, Тим Рот / Tim Roth, Майкл Питт / Michael Pitt, Брэйди Корбет / Brady Corbet, Девон Джирхарт / Devon Gearhart, Бойд Гейнс / Boyd Gaines, Сиобэн Фэллон / Siobhan Fallon, Роберт ЛюПон / Robert LuPone, Сюзанн Хэнке / Susanne C. Hanke, Линда Моран / Linda Moran-Продолжительность: 01:51:08
Перевод: Профессиональный (многоголосный, закадровый) лицензия
Оригинальная аудиодорожка: английский
Язык субтитров: русские, английские
Вид субтитров: Вшитые отключаемые- -Видеокодек: MPEG-4 AVC/H.264
Битрейт видео: ~11.2 Mbps
Размер кадра: 1920x1040p
Качество видео: BDRip 1080p-Аудио 1: Русский DTS, 6 ch, 1536 Kbps
Аудио 2: Английский DTS, 6 ch, 1536 Kbps
-

MediaInfo:

General
Complete name : O:\Zabavnye.igry.2007.mkv
Format : Matroska
File size : 11.2 GiB
Duration : 1h 51mn
Overall bit rate : 14.5 Mbps
Encoded date : UTC 2008-10-26 12:30:38
Writing application : mkvmerge v2.4.0 ('Fumbling Towards Ecstasy') built on Oct 11 2008 20:13:15
Writing library : libebml v0.7.7 + libmatroska v0.8.1
Video
ID : 1
Format : AVC
Format/Info : Advanced Video Codec
Format profile : [email protected]
Format settings, CABAC : Yes
Format settings, ReFrames : 4 frames
Muxing mode : Container [email protected]
Codec ID : V_MPEG4/ISO/AVC
Duration : 1h 51mn
Bit rate : 11.2 Mbps
Nominal bit rate : 11.5 Mbps
Width : 1 920 pixels
Height : 1 040 pixels
Display aspect ratio : 16:9
Frame rate : 24.000 fps
Resolution : 8 bits
Colorimetry : 4:2:0
Scan type : Progressive
Bits/(Pixel*Frame) : 0.233
Stream size : 8.66 GiB (77%)
Title : Funny Games U.S. (2007)
Writing library : x264 core 65 r999M cc51047
Encoding settings : cabac=1 / ref=4 / deblock=1:-3:-3 / analyse=0x3:0x113 / me=umh / subme=9 / psy_rd=1.0:1.0 / mixed_ref=1 / me_range=24 / chroma_me=1 / trellis=2 / 8x8dct=1 / cqm=2 / deadzone=21,11 / chroma_qp_offset=-4 / threads=6 / nr=0 / decimate=1 / mbaff=0 / bframes=3 / b_pyramid=0 / b_adapt=2 / b_bias=0 / direct=3 / wpredb=1 / keyint=250 / keyint_min=25 / scenecut=40(pre) / rc=2pass / bitrate=11496 / ratetol=1.0 / qcomp=0.60 / qpmin=10 / qpmax=51 / qpstep=4 / cplxblur=20.0 / qblur=0.5 / ip_ratio=1.40 / pb_ratio=1.30 / aq=1:0.60
Language : English
Audio #1
ID : 2
Format : DTS
Format/Info : Digital Theater Systems
Codec ID : A_DTS
Duration : 1h 51mn
Bit rate mode : Constant
Bit rate : 1 510 Kbps
Channel(s) : 6 channels
Channel positions : Front: L C R, Surround: L R, LFE
Sampling rate : 48.0 KHz
Resolution : 24 bits
Video delay : 583ms
Stream size : 1.17 GiB (10%)
Title : Russian voiceover DTS
Language : Russian
Audio #2
ID : 3
Format : DTS
Format/Info : Digital Theater Systems
Codec ID : A_DTS
Duration : 1h 51mn
Bit rate mode : Constant
Bit rate : 1 510 Kbps
Channel(s) : 6 channels
Channel positions : Front: L C R, Surround: L R, LFE
Sampling rate : 48.0 KHz
Resolution : 16 bits
Stream size : 1.17 GiB (10%)
Title : English DTS
Language : English
Text #1
ID : 4
Format : UTF-8
Codec ID : S_TEXT/UTF8
Codec ID/Info : UTF-8 Plain Text
Title : Russian SRT
Language : Russian
Text #2
ID : 5
Format : UTF-8
Codec ID : S_TEXT/UTF8
Codec ID/Info : UTF-8 Plain Text
Title : English SRT
Language : English
-

Знаете ли вы, что...

Фильм является авторемейком одноименного фильма Михаэля Ханеке, снятым спустя 10 лет после выхода немецкоязычного оригинала.
-Скриншоты:
Время раздачи: 24/7 - круглосуточно

[Цитировать]



Показать сообщения:    

Текущее время: 06-Дек 08:52

Часовой пояс: UTC + 3


Вы не можете начинать темы
Вы не можете отвечать на сообщения
Вы не можете редактировать свои сообщения
Вы не можете удалять свои сообщения
Вы не можете голосовать в опросах
Вы не можете прикреплять файлы к сообщениям
Вы не можете скачивать файлы

!ВНИМАНИЕ!
Сайт не предоставляет электронные версии произведений, а занимается лишь коллекционированием и каталогизацией ссылок, присылаемых и публикуемых на форуме нашими читателями. Если вы являетесь правообладателем какого-либо представленного материала и не желаете, чтобы ссылка на него находилась в нашем каталоге, свяжитесь с нами, и мы незамедлительно удалим ее. Файлы для обмена на трекере предоставлены пользователями сайта, и администрация не несет ответственности за их содержание. Просьба не заливать файлы, защищенные авторскими правами, а также файлы нелегального содержания!