[ Сегодня идет свободное скачивание без начисления Download ]


Статистика раздачи
Нет
 
   
 
Top  
 
 
-Под подозрением / Under Suspicion (1991) BDRip- Русское название: Под подозрением
Оригинальное название: Under Suspicion
Производство: Columbia Pictures Corporation / США, Великобритания
Год выпуска: 1991
Жанр: Триллер, Криминал, Драма-Описание фильма:
Частный детектив «устраивает» разводы. Он добивается супружеской неверности, а роль любовницы, «подкидываемой» в постель к клиентам играет его жена Хейзел. Однажды, в канун Рождества, Тони врывается в гостиничный номер и нажимает на затвор фотоаппарата. В его объектив попадают сразу два трупа: Хейзел и клиента. На наследство убитого, знаменитого художника, претендуют его вдова и бывшая любовница. А Тони оказывается главным подозреваемым в убийстве...-Режиссер: Саймон Мур / Simon Moore
Актеры: Лиам Нисон / Liam Neeson Лора Сан Джакомо / Laura San Giacomo Кеннет Крэнэм, Мэгги О’Нил, Алан Тэлбот, Малкольм Сторри, Мартин Грэйс, Кевин Мур, Стефен Оксли, Колин Дадли-Продолжительность: 01:39:58
Перевод: Профессиональный (двухголосый закадровый) Карусель + Авторский (одноголосый закадровый) А.Гаврилов + Профессиональный (двухголосый) НТВ+
Оригинальная аудиодорожка: английский
Язык субтитров: русские, английские
Вид субтитров: Вшитые отключаемые- -Видеокодек: MPEG-4 AVC/H.264
Битрейт видео: ~5 262 Kbps
Размер кадра: 1280x536p
Качество видео: BDRip 720p-Аудио 1: Русский DTS 510 Kbps 2 ch, 48.0 KHz | Карусель
Аудио 2: Русский AC-3 192 Kbps : 2 ch, 48.0 KHz | А.Гаврилов
Аудио 3: Русский AC-3 192 Kbps 2 ch, 48.0 KHz | НТВ+
Аудио 4: Английский DTS 510 Kbps 2 ch, 48.0 KHz
-

MediaInfo:

General
Complete name : O:\Under Suspicion (720p).mkv
Format : Matroska
File size : 4.75 GiB
Duration : 1h 39mn
Overall bit rate : 6 805 Kbps
Encoded date : UTC 2013-04-10 21:16:41
Writing application : mkvmerge v6.1.0 ('Old Devil') built on Mar 2 2013 14:32:37
Writing library : libebml v1.3.0 + libmatroska v1.4.0
Video
ID : 1
Format : AVC
Format/Info : Advanced Video Codec
Format profile : High@L4.1
Format settings, CABAC : Yes
Format settings, ReFrames : 11 frames
Muxing mode : Container profile=Unknown@4.1
Codec ID : V_MPEG4/ISO/AVC
Duration : 1h 39mn
Bit rate : 5 262 Kbps
Nominal bit rate : 5 400 Kbps
Width : 1 280 pixels
Height : 536 pixels
Display aspect ratio : 2.35:1
Frame rate : 23.976 fps
Resolution : 8 bits
Colorimetry : 4:2:0
Scan type : Progressive
Bits/(Pixel*Frame) : 0.320
Stream size : 3.67 GiB (77%)
Writing library : x264 core 130 r2273 b3065e6
Encoding settings : cabac=1 / ref=11 / deblock=1:-3:-2 / analyse=0x3:0x133 / me=umh / subme=11 / psy=1 / psy_rd=1.00:0.05 / mixed_ref=1 / me_range=32 / chroma_me=1 / trellis=2 / 8x8dct=1 / cqm=0 / deadzone=21,11 / fast_pskip=0 / chroma_qp_offset=-3 / threads=12 / lookahead_threads=2 / sliced_threads=0 / nr=0 / decimate=1 / interlaced=0 / bluray_compat=0 / constrained_intra=0 / bframes=8 / b_pyramid=2 / b_adapt=2 / b_bias=0 / direct=3 / weightb=1 / open_gop=0 / weightp=2 / keyint=250 / keyint_min=23 / scenecut=40 / intra_refresh=0 / rc_lookahead=60 / rc=2pass / mbtree=1 / bitrate=5400 / ratetol=1.0 / qcomp=0.60 / qpmin=0 / qpmax=69 / qpstep=4 / cplxblur=20.0 / qblur=0.5 / ip_ratio=1.40 / aq=1:1.00
Audio #1
ID : 2
Format : DTS
Format/Info : Digital Theater Systems
Codec ID : A_DTS
Duration : 1h 39mn
Bit rate mode : Constant
Bit rate : 512 Kbps
Channel(s) : 2 channels
Channel positions : L R
Sampling rate : 48.0 KHz
Resolution : 16 bits
Stream size : 366 MiB (8%)
Title : Rus (DVO, karusel)
Language : Russian
Audio #2
ID : 3
Format : AC-3
Format/Info : Audio Coding 3
Codec ID : A_AC3
Duration : 1h 39mn
Bit rate mode : Constant
Bit rate : 192 Kbps
Channel(s) : 2 channels
Channel positions : L R
Sampling rate : 48.0 KHz
Stream size : 137 MiB (3%)
Title : Rus (AVO Gavrilov)
Language : Russian
Audio #3
ID : 4
Format : AC-3
Format/Info : Audio Coding 3
Codec ID : A_AC3
Duration : 1h 39mn
Bit rate mode : Constant
Bit rate : 192 Kbps
Channel(s) : 2 channels
Channel positions : L R
Sampling rate : 48.0 KHz
Stream size : 137 MiB (3%)
Title : Rus (DVO NTV)
Language : Russian
Audio #4
ID : 5
Format : DTS
Format/Info : Digital Theater Systems
Codec ID : A_DTS
Duration : 1h 39mn
Bit rate mode : Constant
Bit rate : 512 Kbps
Channel(s) : 2 channels
Channel positions : L R
Sampling rate : 48.0 KHz
Resolution : 16 bits
Stream size : 366 MiB (8%)
Title : Eng (Original)
Text #1
ID : 6
Format : UTF-8
Codec ID : S_TEXT/UTF8
Codec ID/Info : UTF-8 Plain Text
Title : Rus
Language : Russian
Text #2
ID : 7
Format : UTF-8
Codec ID : S_TEXT/UTF8
Codec ID/Info : UTF-8 Plain Text
Title : Eng
-Скриншоты:
Время раздачи: 24/7 - круглосуточно

[Цитировать]



Показать сообщения:    

Текущее время: 11-Дек 03:23

Часовой пояс: UTC + 3


Вы не можете начинать темы
Вы не можете отвечать на сообщения
Вы не можете редактировать свои сообщения
Вы не можете удалять свои сообщения
Вы не можете голосовать в опросах
Вы не можете прикреплять файлы к сообщениям
Вы не можете скачивать файлы

!ВНИМАНИЕ!
Сайт не предоставляет электронные версии произведений, а занимается лишь коллекционированием и каталогизацией ссылок, присылаемых и публикуемых на форуме нашими читателями. Если вы являетесь правообладателем какого-либо представленного материала и не желаете, чтобы ссылка на него находилась в нашем каталоге, свяжитесь с нами, и мы незамедлительно удалим ее. Файлы для обмена на трекере предоставлены пользователями сайта, и администрация не несет ответственности за их содержание. Просьба не заливать файлы, защищенные авторскими правами, а также файлы нелегального содержания!